<?xml version="1.0" standalone="no"?>
<!DOCTYPE svg PUBLIC "-//W3C//DTD SVG 1.1//EN" "http://www.w3.org/Graphics/SVG/1.1/DTD/svg11.dtd" >
<svg xmlns="http://www.w3.org/2000/svg" xmlns:xlink="http://www.w3.org/1999/xlink" version="1.1">
<metadata></metadata>
<defs>
<font id="abadi_mt_stdcond_extra_bold" horiz-adv-x="1003" >
<font-face units-per-em="2048" ascent="1638" descent="-410" />
<missing-glyph horiz-adv-x="522" />
<glyph horiz-adv-x="0" />
<glyph horiz-adv-x="682" />
<glyph unicode=" "  horiz-adv-x="522" />
<glyph unicode="&#x09;" horiz-adv-x="522" />
<glyph unicode="&#xa0;" horiz-adv-x="522" />
<glyph unicode="!" horiz-adv-x="598" d="M129 1395h336l-43 -971h-250zM131 147q0 73 51 121.5t111 48.5q80 0 128 -51t48 -119q0 -70 -49.5 -120t-118.5 -50q-70 0 -120 50.5t-50 119.5z" />
<glyph unicode="&#x22;" horiz-adv-x="970" d="M109 1147v248h305v-248l-45 -273h-207zM559 1147v248h305v-248l-45 -273h-207z" />
<glyph unicode="#" horiz-adv-x="1368" d="M78 336v188h209l63 303h-272v191h309l82 383h190l-84 -383h355l82 383h188l-82 -383h170v-191h-205l-63 -303h268v-188h-305l-82 -379h-190l84 379h-359l-80 -379h-188l80 379h-170zM475 526h356l62 301h-354z" />
<glyph unicode="$" horiz-adv-x="960" d="M84 967q0 269 295 372v144h180v-129q71 -6 123.5 -21.5t128.5 -54.5v-305q-26 25 -41 37.5t-52 39.5t-78 40.5t-83 13.5q-64 0 -109 -39t-45 -98q0 -53 42 -88t145 -80l35 -15l36 -16.5t45 -25t53.5 -37t49.5 -48.5t46 -63t29.5 -77t12.5 -95q0 -108 -47.5 -201 t-138.5 -155q-47 -33 -152 -66v-147h-180v131q-85 5 -135.5 19t-157.5 63v315q154 -148 299 -148q82 0 135 48.5t53 121.5q0 30 -11 55.5t-25.5 42.5t-47 36.5t-57.5 31.5t-74 33q-274 119 -274 365z" />
<glyph unicode="%" horiz-adv-x="1665" d="M66 1047q0 157 91 263.5t236 106.5q47 0 81.5 -10.5t115.5 -48.5q113 -53 211 -53q62 0 110 14t82.5 42.5t57 58t47.5 73.5h188l-665 -1589h-197l541 1278l-4 4q-67 -43 -138 -43q-64 0 -129 43l-4 -4q10 -25 14.5 -38t8.5 -40t4 -64q0 -160 -94 -262t-232 -102 q-139 0 -232 106.5t-93 264.5zM295 1044q0 -86 26 -137t70 -51t70 53t26 140q0 88 -26 138t-66 50q-49 0 -74.5 -55t-25.5 -138zM975 348q0 166 95 268.5t218 102.5q83 0 149.5 -31.5t107 -84t62 -118.5t21.5 -139q0 -162 -92.5 -265.5t-232.5 -103.5q-144 0 -236 106 t-92 265zM1204 358q0 -86 26 -143t70 -57q43 0 71 50t28 138q0 90 -28 141.5t-66 51.5q-51 0 -76 -51.5t-25 -129.5z" />
<glyph unicode="&#x26;" horiz-adv-x="1110" d="M39 401q0 67 19.5 130t43.5 105t67.5 89t67.5 67.5t68 55.5q-55 152 -55 250q0 60 22.5 116t65.5 102t112 73.5t154 27.5q66 0 174 -22v-246q-60 29 -100 29q-50 0 -80.5 -29t-30.5 -76q0 -20 15 -76q6 -19 14 -32l178 -361l4 4q-1 10 -1 43.5t0.5 73.5t0.5 45v78h277 q0 -325 -148 -535l148 -313h-324l-41 84q-22 -20 -40 -33.5t-51 -33t-74.5 -30t-88.5 -10.5q-166 0 -281.5 124t-115.5 300zM356 451q0 -81 48 -138t114 -57q25 0 60 14l-166 351q-1 -2 -4 -7q-15 -26 -23.5 -43t-18.5 -51.5t-10 -68.5z" />
<glyph unicode="'" horiz-adv-x="487" d="M90 1147v248h307v-248l-47 -273h-207z" />
<glyph unicode="(" horiz-adv-x="874" d="M291 481q0 146 16 269t51 236.5t71 199.5t97 209h252q-64 -130 -99.5 -215.5t-65 -192.5t-41 -221.5t-11.5 -267.5q0 -150 13.5 -277.5t31.5 -214t53 -176t61.5 -141.5t72.5 -133h-256q-55 103 -91 184t-75.5 197.5t-59.5 253t-20 290.5z" />
<glyph unicode=")" horiz-adv-x="874" d="M82 -444q46 81 72.5 133t61 141.5t52.5 176t31.5 214t13.5 277.5q0 153 -11.5 267.5t-41 221.5t-65 192.5t-99.5 215.5h252q61 -124 97 -209.5t71.5 -199t51.5 -236.5t16 -269q0 -154 -20 -290.5t-59.5 -253t-75.5 -197.5t-91 -184h-256z" />
<glyph unicode="*" horiz-adv-x="960" d="M141 1106l41 121l234 -76v244h131v-244l231 76l43 -121l-233 -78l143 -192l-106 -78l-146 194l-145 -194l-107 78l146 192z" />
<glyph unicode="+" horiz-adv-x="1366" d="M125 573v205h457v457h204v-457h457v-205h-457v-456h-204v456h-457z" />
<glyph unicode="," horiz-adv-x="598" d="M137 88q0 87 51 136.5t123 49.5q81 0 133 -62t52 -165q0 -198 -177 -536h-137q87 235 99 389q-23 11 -30 14.5t-30 17t-33 25.5t-24.5 31.5t-20.5 44.5t-6 55z" />
<glyph unicode="-" horiz-adv-x="768" d="M121 319v316h526v-316h-526z" />
<glyph unicode="." horiz-adv-x="598" d="M139 137q0 66 48.5 113t105.5 47q73 0 119.5 -48.5t46.5 -111.5q0 -66 -47.5 -113t-112.5 -47q-64 0 -112 47.5t-48 112.5z" />
<glyph unicode="/" horiz-adv-x="768" d="M61 -190l457 1585h205l-459 -1585h-203z" />
<glyph unicode="0" horiz-adv-x="1044" d="M47 678q0 305 131 492.5t342 187.5q71 0 134.5 -21t109.5 -56t78 -71t53 -75q34 -63 57 -141t31.5 -152t11 -116t2.5 -79q0 -137 -30.5 -257.5t-88 -213t-148.5 -146t-204 -53.5q-71 0 -135 22t-110 57.5t-77 71.5t-52 73q-59 104 -82 235t-23 242zM367 680q0 -53 2 -102 t11.5 -117.5t25 -117.5t45.5 -84.5t71 -35.5q156 0 156 443q0 53 -2 100.5t-11 114.5t-24.5 114.5t-45.5 82t-71 34.5q-157 0 -157 -432z" />
<glyph unicode="1" horiz-adv-x="1044" d="M205 848v231h49q98 0 150.5 55.5t52.5 155.5v45h262v-1335h-305v848h-209z" />
<glyph unicode="2" horiz-adv-x="1044" d="M102 0v160q0 63 7 116t18 95t34 83t44.5 71.5t61 70t72.5 68.5t89 77q90 75 124 118.5t34 92.5q0 59 -45.5 100.5t-120.5 41.5q-37 0 -72.5 -9t-71 -28t-56 -32.5t-54.5 -37.5v293q56 23 91 35.5t104.5 27.5t134.5 15q186 0 301.5 -101.5t115.5 -265.5q0 -128 -64 -221 t-206 -211q-80 -67 -115.5 -98t-66.5 -68t-40 -66t-13 -73h528v-254h-834z" />
<glyph unicode="3" horiz-adv-x="1044" d="M137 49v293q142 -98 273 -98q83 0 139.5 52t56.5 124q0 76 -55.5 121t-142.5 45h-142v231h92q84 0 133.5 37.5t49.5 101.5q0 57 -43.5 96.5t-116.5 39.5q-45 0 -94 -17.5t-79 -36t-71 -47.5v289q45 21 74 33t101.5 28.5t146.5 16.5q172 0 289.5 -91t117.5 -243 q0 -58 -17.5 -107.5t-40.5 -80t-58 -57t-58 -38t-53 -24.5v-4q35 -6 62.5 -13t74 -30t77.5 -54.5t55 -89t24 -131.5q0 -182 -131.5 -300t-343.5 -118q-156 0 -320 72z" />
<glyph unicode="4" horiz-adv-x="1044" d="M53 383v248l465 704h318v-721h155v-231h-155v-383h-318v383h-465zM297 614h221v338h-4z" />
<glyph unicode="5" horiz-adv-x="1044" d="M156 51v301q42 -30 71 -48.5t85 -40t106 -21.5q83 0 138.5 67t55.5 170q0 69 -27.5 118.5t-76.5 49.5q-22 0 -40 -12.5t-24 -22t-14 -26.5h-274v749h694v-252h-379v-243q77 63 158 63q50 0 102 -24.5t99.5 -71.5t77.5 -129.5t30 -185.5q0 -223 -131 -369t-344 -146 q-63 0 -129.5 14.5t-97.5 26.5t-80 33z" />
<glyph unicode="6" horiz-adv-x="1044" d="M63 672q0 113 21.5 215t65.5 188.5t107 149t150.5 98t190.5 35.5q56 0 116.5 -13t83 -21t68.5 -26v-294q-131 88 -229 88q-123 0 -199 -125q-32 -52 -49 -185l4 -4q103 131 221 131q138 0 237 -128t99 -312q0 -134 -54.5 -246.5t-152 -179t-215.5 -66.5 q-91 0 -172.5 41.5t-148 123t-105.5 218.5t-39 312zM389 494q8 -77 24.5 -130.5t36.5 -77.5t37 -33t35 -9q48 0 78.5 56t30.5 146q0 84 -27.5 136.5t-75.5 52.5q-41 0 -72 -35.5t-67 -105.5z" />
<glyph unicode="7" horiz-adv-x="1044" d="M82 1081v254h823v-254l-422 -1081h-342l443 1081h-502z" />
<glyph unicode="8" horiz-adv-x="1044" d="M57 352q0 50 17 95.5t40.5 77t61.5 62.5t65.5 48t67.5 39q-44 35 -71 60.5t-57.5 64.5t-45 86t-14.5 104q0 168 118 268.5t291 100.5q164 0 279 -89.5t115 -230.5q0 -85 -43.5 -144t-151.5 -146q42 -24 69.5 -42.5t67 -52.5t63 -69t41 -86.5t17.5 -110.5 q0 -120 -63.5 -214.5t-169.5 -145t-234 -50.5q-192 0 -327.5 109.5t-135.5 265.5zM360 387q0 -69 45.5 -116.5t108.5 -47.5q62 0 105 49t43 125q0 43 -14.5 78t-44 61.5t-46.5 38t-49 29.5q-71 -50 -101 -89q-47 -60 -47 -128zM436 991q0 -32 9 -59.5t28.5 -51t31 -34.5 t34.5 -31q25 27 39 44t31.5 56t17.5 78q0 53 -27 86t-68 33q-40 0 -68 -34.5t-28 -86.5z" />
<glyph unicode="9" horiz-adv-x="1044" d="M94 866q0 134 54.5 246.5t152 179t215.5 66.5q72 0 139 -25t126.5 -80t103.5 -134.5t70 -196.5t26 -258q0 -142 -34.5 -265.5t-100 -218t-169 -149t-231.5 -54.5q-56 0 -116.5 13t-83 21t-68.5 26v295q131 -88 230 -88q122 0 198 125q32 52 49 184l-4 4 q-103 -131 -221 -131q-138 0 -237 128t-99 312zM414 889q0 -84 27 -136.5t75 -52.5q40 0 71.5 36t67.5 106q-8 77 -24.5 130.5t-36.5 77.5t-37 33t-35 9q-47 0 -77.5 -56.5t-30.5 -146.5z" />
<glyph unicode=":" horiz-adv-x="598" d="M139 137q0 66 48.5 113t105.5 47q73 0 119.5 -48.5t46.5 -111.5q0 -66 -47.5 -113t-112.5 -47q-64 0 -112 47.5t-48 112.5zM139 815q0 66 48.5 113t105.5 47q73 0 119.5 -48.5t46.5 -111.5q0 -66 -47.5 -113t-112.5 -47q-64 0 -112 47.5t-48 112.5z" />
<glyph unicode=";" horiz-adv-x="598" d="M137 88q0 87 51 136.5t123 49.5q81 0 133 -62t52 -165q0 -198 -177 -536h-137q87 235 99 389q-23 11 -30 14.5t-30 17t-33 25.5t-24.5 31.5t-20.5 44.5t-6 55zM139 815q0 66 48.5 113t105.5 47q73 0 119.5 -48.5t46.5 -111.5q0 -66 -47.5 -113t-112.5 -47 q-64 0 -112 47.5t-48 112.5z" />
<glyph unicode="&#x3c;" horiz-adv-x="1366" d="M127 580v194l1112 463v-231l-819 -330l819 -328v-233z" />
<glyph unicode="=" horiz-adv-x="1366" d="M125 332v205h1118v-205h-1118zM125 819v205h1118v-205h-1118z" />
<glyph unicode="&#x3e;" horiz-adv-x="1366" d="M127 115v233l819 328l-819 330v231l1112 -463v-194z" />
<glyph unicode="?" horiz-adv-x="917" d="M51 1055v282q212 80 352 80q124 0 225.5 -46t160.5 -130.5t59 -189.5q0 -43 -10 -80t-24 -65t-47 -65.5t-61 -64.5t-85 -78q-46 -42 -74 -79.5t-39 -74t-13.5 -58.5t-2.5 -60h-273v57q0 119 34.5 193t108.5 147q10 8 72 70q48 48 69 81t21 66q0 53 -49 88t-117 35 q-48 0 -93.5 -10t-92 -32t-63.5 -31.5t-58 -34.5zM186 147q0 72 51 122t111 50q80 0 128 -50.5t48 -118.5q0 -72 -49.5 -122.5t-118.5 -50.5q-70 0 -120 50.5t-50 119.5z" />
<glyph unicode="@" horiz-adv-x="1638" d="M59 528q0 136 30.5 263t95.5 241.5t158.5 199.5t229 135t297.5 50q145 0 265 -42t200.5 -112t136 -163.5t80.5 -194.5t25 -207q0 -134 -37 -248t-94 -187.5t-127 -126t-135.5 -75t-120.5 -22.5q-44 0 -74 10t-46 30.5t-22.5 35.5t-13.5 41q-72 -67 -119.5 -93t-117.5 -26 q-84 0 -149 36.5t-103 98t-57 136t-19 157.5q0 108 29.5 219t82.5 205t136.5 153.5t181.5 59.5q49 0 89 -14t68.5 -40.5t43 -44.5t31.5 -45l16 115h199l-127 -792q-5 -29 -5 -35q0 -39 37 -39q43 0 94.5 33t99.5 92.5t80 156.5t32 209q0 255 -152.5 412.5t-403.5 157.5 q-139 0 -260.5 -50t-211.5 -141.5t-141.5 -230.5t-51.5 -309t53 -305.5t143.5 -220t206.5 -129t246 -44.5q280 0 506 189h211q-1 -2 -13 -15.5t-15 -17.5t-14.5 -17t-17 -18.5t-17.5 -18t-20.5 -20t-21.5 -18.5t-24.5 -19.5t-26 -19t-29.5 -19.5q-247 -153 -516 -153 q-162 0 -306 56.5t-254.5 160.5t-175.5 264.5t-65 355.5zM549 408q0 -92 39.5 -159t107.5 -67q113 0 170 148q40 102 59 214.5t19 200.5q0 79 -34.5 140t-106.5 61q-64 0 -113 -50t-74.5 -118t-42 -151t-20.5 -135t-4 -84z" />
<glyph unicode="A" horiz-adv-x="1067" d="M6 0l365 1395h323l367 -1395h-354l-50 276h-266l-51 -276h-334zM436 526h176l-86 488h-4z" />
<glyph unicode="B" horiz-adv-x="1067" d="M92 0v1395h496q156 0 254 -88t98 -238q0 -61 -18.5 -112.5t-42.5 -83.5t-61 -59t-60 -38.5t-53 -23.5v-4q21 -2 40 -5.5t54.5 -14.5t64 -25.5t62 -42t56 -61.5t37.5 -85.5t15 -112.5q0 -130 -66 -222t-175.5 -135.5t-251.5 -43.5h-449zM418 272h104q75 0 127.5 45.5 t52.5 120.5q0 70 -51 116t-129 46h-104v-328zM418 860h35q71 0 114 36t43 105q0 58 -33 89.5t-98 31.5h-61v-262z" />
<glyph unicode="C" horiz-adv-x="874" d="M33 692q0 150 36.5 282t103.5 230.5t167.5 155.5t222.5 57q97 0 213 -51v-317q-82 75 -170 75q-50 0 -90 -22.5t-65 -55.5t-43.5 -81.5t-26.5 -87.5t-13 -87t-5.5 -67.5t-0.5 -40.5q0 -182 64.5 -294t175.5 -112q80 0 174 74v-315q-39 -18 -61 -26.5t-71 -20t-97 -11.5 q-155 0 -273 96t-179.5 257.5t-61.5 361.5z" />
<glyph unicode="D" horiz-adv-x="1087" d="M88 0v1395h408q119 0 211 -36.5t150.5 -98t96.5 -150.5t53 -185.5t15 -211.5q0 -59 -5 -117t-21 -130.5t-41.5 -136t-70 -125.5t-102.5 -106t-143 -71t-188 -27h-363zM414 272q30 0 53 2.5t53 13t52 29t45 53t37.5 81.5t24 118.5t9.5 161.5q0 51 -4 96.5t-18.5 102 t-38.5 97t-67.5 68t-102.5 27.5h-43v-850z" />
<glyph unicode="E" horiz-adv-x="960" d="M90 0v1395h795v-283h-469v-254h438v-272h-438v-303h469v-283h-795z" />
<glyph unicode="F" horiz-adv-x="917" d="M92 0v1395h776v-283h-450v-289h416v-272h-416v-551h-326z" />
<glyph unicode="G" horiz-adv-x="1024" d="M72 696q0 111 19 214t61 196t103 161.5t150 109t197 40.5q167 0 295 -82v-309q-51 40 -75 56.5t-66 32t-88 15.5q-58 0 -104 -22.5t-74 -61.5t-48 -84t-29 -99.5t-12.5 -96.5t-3.5 -86q0 -75 9 -146t27.5 -135.5t52.5 -103.5t79 -39q80 0 80 156v88h-106v252h409v-752 h-157l-76 104q-23 -28 -36.5 -43t-42 -38.5t-63.5 -34.5t-77 -11q-179 0 -301.5 191t-122.5 528z" />
<glyph unicode="H" horiz-adv-x="1110" d="M102 0v1395h326v-539h256v539h326v-1395h-326v584h-256v-584h-326z" />
<glyph unicode="I" horiz-adv-x="532" d="M102 0v1395h328v-1395h-328z" />
<glyph unicode="J" horiz-adv-x="641" d="M23 0v281q34 -23 49 -24q5 -1 10 -1q46 0 63 29.5t17 89.5v1020h330v-1047q0 -201 -77.5 -286t-224.5 -85q-87 0 -167 23z" />
<glyph unicode="K" horiz-adv-x="980" d="M90 0v1395h326v-502h4l239 502h324l-272 -473l313 -922h-365l-157 553l-86 -152v-401h-326z" />
<glyph unicode="L" horiz-adv-x="854" d="M94 0v1395h326v-1110h448v-285h-774z" />
<glyph unicode="M" horiz-adv-x="1300" d="M98 0v1395h357l194 -535l195 535h356v-1395h-317v522q0 172 16 402h-25q-5 -35 -24 -101q-27 -95 -57 -178l-144 -405l-141 405q-63 179 -84 279h-25q17 -232 17 -402v-522h-318z" />
<glyph unicode="N" horiz-adv-x="1110" d="M96 0v1395h330l158 -443q74 -209 108 -340h19q0 8 -1.5 35t-2.5 68q0 15 -2.5 65.5t-2.5 67.5v547h312v-1395h-330l-160 442q-72 203 -108 342h-17q0 -72 7 -153q0 -25 1 -50t1 -34v-547h-312z" />
<glyph unicode="O" horiz-adv-x="1130" d="M47 694q0 164 39 301.5t106.5 229t157.5 142t191 50.5q94 0 172.5 -26t133.5 -68.5t97.5 -102.5t68 -123t42 -135t22.5 -133.5t6 -123.5q0 -209 -61.5 -373t-182 -259.5t-282.5 -95.5q-124 0 -223 58.5t-160.5 159t-94 228t-32.5 271.5zM373 702q0 -197 50.5 -311.5 t139.5 -114.5q91 0 143 120t52 309q0 200 -53.5 309.5t-129.5 109.5q-59 0 -101 -40t-62.5 -106.5t-29.5 -134t-9 -141.5z" />
<glyph unicode="P" horiz-adv-x="1024" d="M90 0v1395h496q198 0 301.5 -106t103.5 -288q0 -219 -128 -333.5t-337 -114.5h-110v-553h-326zM416 825h71q79 0 129 41t50 117q0 64 -39 101.5t-109 37.5h-102v-297z" />
<glyph unicode="Q" horiz-adv-x="1130" d="M47 694q0 207 59.5 369t178.5 258t280 96q80 0 154 -25t141 -81.5t116 -139t78 -205.5t29 -274q0 -365 -182 -563q-21 -24 -45.5 -43.5t-41 -29.5t-54.5 -31q10 -18 20 -31t28.5 -31t45.5 -27.5t61 -9.5q38 0 65.5 12t59.5 37v-256q-100 -36 -178 -36q-60 0 -109.5 16.5 t-83 41.5t-63 66.5t-48 80t-40.5 94.5q-42 5 -67 10t-67 21t-77 42q-94 68 -154 175.5t-83 220.5t-23 243zM373 698q0 -201 52 -313.5t140 -112.5q63 0 107.5 60.5t65 156.5t20.5 216q0 204 -55 311.5t-132 107.5q-52 0 -91.5 -35.5t-62 -97.5t-33.5 -135.5t-11 -157.5z" />
<glyph unicode="R" horiz-adv-x="1024" d="M90 0v1395h500q178 0 279.5 -90.5t101.5 -247.5q0 -53 -12.5 -99.5t-31 -80t-47.5 -63.5t-53.5 -48.5t-58 -36.5t-53 -25.5l-45.5 -17.5v-4q40 -8 71.5 -21t65 -38.5t58 -71t38.5 -109.5l94 -442h-354l-53 385q-14 107 -49.5 147.5t-96.5 40.5h-28v-573h-326zM416 825h69 q67 0 111.5 41t44.5 119q0 60 -32.5 98.5t-108.5 38.5h-84v-297z" />
<glyph unicode="S" horiz-adv-x="937" d="M61 72v344q32 -28 54 -45.5t65 -46t90 -43.5t95 -15q74 0 126 47.5t52 114.5q0 60 -44 102t-137 88l-32 15q-269 135 -269 373q0 174 122.5 292.5t322.5 118.5q59 0 116 -12.5t91 -26t80 -35.5v-331q-133 127 -252 127q-61 0 -105.5 -36t-44.5 -87q0 -26 11 -49 t25.5 -38.5t41 -32t43.5 -25t47 -21.5q34 -15 54.5 -25t58 -31.5t61.5 -41.5t54 -53t47.5 -67.5t30 -83t12.5 -102.5q0 -195 -139.5 -332t-340.5 -137q-157 0 -336 95z" />
<glyph unicode="T" horiz-adv-x="980" d="M45 1112v283h891v-283h-283v-1112h-325v1112h-283z" />
<glyph unicode="U" horiz-adv-x="1067" d="M84 434v961h326v-924q0 -106 26.5 -163.5t93.5 -57.5q38 0 64.5 19.5t39 52.5t18 65t5.5 66v942h326v-961q0 -224 -124 -340.5t-331 -116.5q-216 0 -330 119t-114 338z" />
<glyph unicode="V" horiz-adv-x="1044" d="M14 1395h351l151 -918h4l158 918h352l-352 -1395h-324z" />
<glyph unicode="W" horiz-adv-x="1386" d="M18 1395h332l58 -631q1 -3 1.5 -9t1 -16t1.5 -18q20 -197 24 -348h21q0 18 8 182q1 19 4.5 71.5t3.5 63.5l59 705h322l59 -705q17 -218 17 -301v-16h22q4 141 27 391l59 631h330l-258 -1395h-328l-51 659l-4 41q-16 168 -22 373h-21q-3 -77 -10 -174q-3 -40 -8.5 -120 t-8.5 -120l-53 -659h-325z" />
<glyph unicode="X" horiz-adv-x="1067" d="M37 0l276 774l-209 621h342l86 -410h5l84 410h350l-215 -621l274 -774h-362l-131 557h-5l-135 -557h-360z" />
<glyph unicode="Y" horiz-adv-x="1024" d="M25 1395h366l117 -443h4l115 443h372l-329 -756v-639h-326v639z" />
<glyph unicode="Z" d="M55 0v285l469 827h-420v283h797v-283l-471 -829h516v-283h-891z" />
<glyph unicode="[" horiz-adv-x="788" d="M307 -444v1839h398v-189h-179v-1462h179v-188h-398z" />
<glyph unicode="\" horiz-adv-x="768" d="M59 1395h203l445 -1585h-201z" />
<glyph unicode="]" horiz-adv-x="788" d="M84 -256h178v1462h-178v189h397v-1839h-397v188z" />
<glyph unicode="^" horiz-adv-x="1196" d="M115 596l374 799h224l366 -799h-284l-197 489l-199 -489h-284z" />
<glyph unicode="_" horiz-adv-x="1130" d="M-12 -154h1155v-102h-1155v102z" />
<glyph unicode="`" horiz-adv-x="681" d="M96 1382h254l146 -295h-189z" />
<glyph unicode="a" horiz-adv-x="917" d="M23 283q0 57 20 104.5t49 80t77 60t86.5 43t95.5 29.5t87.5 19t77.5 12q-7 33 -28.5 55.5t-50.5 32t-50.5 13t-42.5 3.5q-49 0 -95 -15.5t-71.5 -31.5t-60.5 -43v252q159 78 309 78q177 0 278 -100t101 -277v-322q0 -139 57 -276h-317q-21 52 -29 90q-25 -27 -38 -40 t-40.5 -33.5t-59 -30t-69.5 -9.5q-113 0 -199.5 89.5t-86.5 216.5zM315 324q0 -49 30.5 -83t72.5 -34q47 0 72.5 41t25.5 102v123q-26 -3 -43 -5.5t-50 -13t-54 -25t-37.5 -42t-16.5 -63.5z" />
<glyph unicode="b" d="M94 0v1395h314v-537q22 26 36.5 41t41.5 35.5t59 30.5t71 10q95 0 171 -67.5t115.5 -175.5t39.5 -234q0 -140 -47.5 -260t-130 -190.5t-180.5 -70.5q-48 0 -90.5 19t-63 38t-45.5 48l-86 -82h-205zM408 299q43 -55 86 -55q57 0 89.5 67t32.5 174q0 99 -28 158t-80 59 q-47 0 -73.5 -47.5t-26.5 -130.5v-225z" />
<glyph unicode="c" horiz-adv-x="747" d="M45 475q0 212 123.5 356t306.5 144q79 0 184 -41v-287q-32 25 -57 37t-57 12q-75 0 -123.5 -61t-48.5 -152q0 -92 49.5 -154.5t118.5 -62.5q59 0 118 53v-282q-32 -18 -50.5 -27t-62 -21t-87.5 -12q-174 0 -294 144t-120 354z" />
<glyph unicode="d" d="M43 471q0 209 100 356.5t246 147.5q42 0 81.5 -15t57.5 -27.5t45 -35.5v498h318v-1395h-281l-28 111q-21 -29 -33.5 -44t-40.5 -40.5t-62.5 -37.5t-76.5 -12q-94 0 -170 70.5t-116 182.5t-40 241zM362 483q0 -103 32.5 -165t82.5 -62q46 0 71 47.5t25 110.5v243 q-1 1 -6 6.5t-7 8t-7.5 8t-9 8.5t-9.5 7.5t-11.5 7t-12 5.5t-13.5 4t-14 1q-56 0 -88.5 -64t-32.5 -166z" />
<glyph unicode="e" horiz-adv-x="960" d="M51 473q0 217 125 359.5t320 142.5q190 0 294.5 -128.5t104.5 -332.5v-78h-512q43 -192 211 -192q64 0 117 28t145 105v-295q-41 -22 -63.5 -33.5t-71.5 -31.5t-100.5 -30t-104.5 -10q-204 0 -334.5 138.5t-130.5 357.5zM367 606h249v31q0 65 -32.5 111.5t-87.5 46.5 q-13 0 -26 -2.5t-32 -14t-32.5 -30.5t-25 -56t-13.5 -86z" />
<glyph unicode="f" horiz-adv-x="598" d="M14 721v231h117v164q0 143 84.5 222t218.5 79q61 0 166 -33v-258q-48 23 -72 23q-79 0 -79 -94v-103h151v-231h-151v-721h-318v721h-117z" />
<glyph unicode="g" d="M45 477q0 130 45.5 244.5t126.5 184t178 69.5q39 0 72 -9.5t59.5 -28.5t37.5 -29t30 -31l88 75h211v-913q0 -144 -52 -257.5t-156 -181t-245 -67.5q-70 0 -142 18t-103 31.5t-86 40.5v314q35 -26 55 -39.5t57.5 -35t75.5 -32t76 -10.5q96 0 149 63.5t53 141.5v90h-4 q-78 -115 -198 -115q-89 0 -165 64.5t-119.5 174.5t-43.5 238zM369 496q0 -97 30 -158.5t80 -61.5q45 0 70.5 50t25.5 133v203q-44 49 -88 49q-55 0 -86.5 -58.5t-31.5 -156.5z" />
<glyph unicode="h" horiz-adv-x="980" d="M98 0v1395h318v-525q27 30 46 47.5t64.5 37.5t98.5 20q117 0 187.5 -87.5t70.5 -211.5v-676h-318v625q0 35 -16 56t-45 21q-46 0 -67 -48.5t-21 -118.5v-535h-318z" />
<glyph unicode="i" horiz-adv-x="532" d="M94 1249q0 72 51 120t119 48t120 -48.5t52 -119.5q0 -70 -50.5 -120t-121.5 -50t-120.5 50.5t-49.5 119.5zM106 0v952h316v-952h-316z" />
<glyph unicode="j" horiz-adv-x="532" d="M-47 -174q3 -1 14 -6.5t17.5 -8t18 -5.5t22.5 -3q79 0 79 103v1046h318v-1046q0 -373 -303 -373q-85 0 -166 37v256zM94 1249q0 72 51 120t119 48t120 -48.5t52 -119.5q0 -70 -50.5 -120t-121.5 -50t-120.5 50.5t-49.5 119.5z" />
<glyph unicode="k" horiz-adv-x="897" d="M98 0v1395h318v-731h4l145 288h297l-182 -266l221 -686h-336l-106 362l-43 -63v-299h-318z" />
<glyph unicode="l" horiz-adv-x="532" d="M106 0v1395h318v-1395h-318z" />
<glyph unicode="m" horiz-adv-x="1449" d="M98 0v952h273l37 -102q83 125 217 125q40 0 75 -13t55 -26.5t41 -41.5t27 -38t19 -35q17 26 26 39.5t32 39t45 39t57.5 25t76.5 11.5q89 0 152.5 -46.5t93 -119t29.5 -162.5v-647h-318v586q0 112 -65 112q-86 0 -86 -168v-530h-318v586q0 112 -61 112q-39 0 -64.5 -42.5 t-25.5 -104.5v-551h-318z" />
<glyph unicode="n" horiz-adv-x="980" d="M98 0v952h277l31 -98q16 22 29.5 37.5t40 37.5t63.5 34t82 12q81 0 143 -43.5t91.5 -108t29.5 -137.5v-686h-318v621q0 33 -14.5 57t-44.5 24q-43 0 -67.5 -46t-24.5 -121v-535h-318z" />
<glyph unicode="o" d="M57 471q0 223 120.5 363.5t320.5 140.5q199 0 323.5 -132t124.5 -362q0 -229 -124 -366.5t-326 -137.5q-203 0 -321 137t-118 357zM383 475q0 -42 4.5 -79.5t16 -79.5t36.5 -67.5t62 -25.5q38 0 64 26.5t37 71t14.5 80t3.5 74.5q0 107 -28.5 180.5t-90.5 73.5 q-39 0 -65 -27.5t-36.5 -73.5t-14 -80.5t-3.5 -72.5z" />
<glyph unicode="p" d="M94 -444v1396h271l30 -106q87 129 217 129q97 0 173 -66t116.5 -176t40.5 -241q0 -141 -44 -258.5t-125 -187t-181 -69.5q-40 0 -76.5 13t-58 28t-49.5 39v-501h-314zM408 303q35 -53 88 -53q58 0 90 63.5t32 167.5q0 98 -28.5 162t-83.5 64q-34 0 -56 -21t-30 -56 t-10 -54t-2 -41v-232z" />
<glyph unicode="q" d="M43 467q0 134 44.5 250t125.5 187t180 71q50 0 93 -19t60 -35t42 -44l84 75h215v-1396h-318v534q-24 -28 -36.5 -40t-38.5 -33.5t-55 -30.5t-64 -9q-90 0 -166.5 65.5t-121 178.5t-44.5 246zM365 475q0 -99 31 -160t81 -61q42 0 67 46t25 108v249l-4 5q-4 5 -5 6.5 t-5 6.5t-6.5 7t-7.5 6.5t-9 6.5t-9.5 5.5t-11 5t-12.5 2.5t-14 1q-55 0 -87.5 -67t-32.5 -167z" />
<glyph unicode="r" horiz-adv-x="661" d="M92 0v952h275l30 -125h4q8 23 18.5 44t30 47t50 41.5t67.5 15.5q40 0 78 -23v-299q-56 25 -88 25q-64 0 -103.5 -50t-39.5 -126v-502h-322z" />
<glyph unicode="s" horiz-adv-x="831" d="M61 61v289q47 -37 80 -59.5t85.5 -44t99.5 -21.5q46 0 75 23.5t29 58.5q0 32 -23 47.5t-128 59.5q-29 13 -46 21t-54 33t-59 50.5t-40.5 69t-18.5 92.5q0 133 108 214t267 81q138 0 271 -62v-284q-111 98 -213 98q-40 0 -67.5 -16.5t-27.5 -44.5t25 -43.5t76 -32.5 q34 -11 60.5 -21.5t68.5 -35.5t69.5 -53.5t48.5 -74.5t21 -100q0 -137 -109.5 -232.5t-285.5 -95.5q-66 0 -135 17t-99.5 30.5t-77.5 36.5z" />
<glyph unicode="t" horiz-adv-x="661" d="M18 721v231h136l24 287h264v-287h158v-231h-143v-391q0 -40 19 -65t52 -25q35 0 72 26v-258q-101 -31 -178 -31q-143 0 -215 68.5t-72 220.5v455h-117z" />
<glyph unicode="u" horiz-adv-x="980" d="M100 301v651h318v-590q0 -108 59 -108q37 0 61.5 31t24.5 77v590h318v-952h-275l-28 94q-18 -20 -24.5 -27.5t-31 -28.5t-44 -31.5t-51.5 -20t-65 -9.5q-119 0 -190.5 94.5t-71.5 229.5z" />
<glyph unicode="v" horiz-adv-x="811" d="M-23 952h338l91 -616h4l98 616h326l-275 -952h-315z" />
<glyph unicode="w" horiz-adv-x="1300" d="M-6 952h319l99 -649h4l73 649h316l78 -667h4l100 667h320l-254 -952h-320l-84 727h-4l-86 -727h-313z" />
<glyph unicode="x" horiz-adv-x="854" d="M8 0l211 506l-170 446h326l53 -340h4l82 340h289l-170 -438l213 -514h-352l-74 399h-4l-76 -399h-332z" />
<glyph unicode="y" horiz-adv-x="874" d="M14 952h338l92 -633h5l83 633h328l-256 -952q-12 -48 -20 -76.5t-22 -73.5t-26 -72.5t-30 -65t-36.5 -60t-44.5 -48t-54 -39.5t-64 -23t-76 -9q-23 0 -44.5 2.5t-41.5 8.5t-31.5 10t-30 11.5t-20.5 8.5v244q49 -29 89 -29q53 0 79 42t52 153z" />
<glyph unicode="z" horiz-adv-x="854" d="M53 0v242l336 469h-305v241h696v-241l-338 -469h373v-242h-762z" />
<glyph unicode="{" horiz-adv-x="796" d="M39 315v240q64 4 105.5 24.5t64.5 46t33.5 87t12.5 108t3 148.5v4q1 85 6.5 138t22.5 104t50.5 85t86.5 58q43 21 94 29t152 8h53v-240q-50 0 -82 -2t-55.5 -10t-36 -16t-19.5 -27.5t-9 -37.5t-3 -52l-2 -97q-2 -64 -3.5 -94.5t-5.5 -77.5t-9 -69.5t-14.5 -56t-22 -52.5 t-31.5 -43.5t-43.5 -44.5t-56.5 -41q29 -17 51.5 -35.5t40 -35t31 -42t22.5 -43.5t16 -53.5t10.5 -57.5t6.5 -69.5t4.5 -76.5t3.5 -91q3 -107 7.5 -135t23.5 -47q27 -24 61.5 -29.5t114.5 -5.5v-239h-53q-89 0 -154 10.5t-111 35t-74.5 56.5t-44.5 83t-22 106t-6 133 q0 118 -2.5 169.5t-18 105.5t-49.5 89q-26 27 -58.5 37.5t-90.5 15.5z" />
<glyph unicode="|" horiz-adv-x="1204" d="M494 -444v1839h215v-1839h-215z" />
<glyph unicode="}" horiz-adv-x="796" d="M39 1155v240h53q89 0 154 -10.5t111 -35t74.5 -56.5t44.5 -83t22 -106t6 -133q0 -76 0.5 -107.5t3.5 -81.5t10.5 -74.5t20.5 -52.5t34 -49q26 -27 59 -37.5t91 -13.5v-240q-49 -3 -81 -12t-60.5 -31t-44 -60t-24.5 -99t-9 -148v-74.5t-1.5 -65.5t-4 -61.5t-7.5 -52.5 t-12 -49t-17.5 -41t-24.5 -38.5t-33 -31t-42 -28.5q-53 -29 -110.5 -39t-159.5 -10h-51v239q36 0 54 0.5t46.5 3.5t42.5 10.5t30 20.5t23 34t7 50q0 43 4 123q9 195 22 257q23 112 102 179q26 22 60 43q-112 73 -145 156t-39 282q0 12 -2 71t-2 67q0 50 -5 74t-26.5 42.5 t-61 23.5t-112.5 5z" />
<glyph unicode="~" horiz-adv-x="1343" d="M117 500v223q164 137 315 137q60 0 119 -19.5t151 -64.5q89 -44 138 -60t94 -16q42 0 83.5 12.5t82.5 39t64.5 45t62.5 51.5v-223q-87 -68 -157 -104t-152 -36q-94 0 -246 74q-12 3 -56 25q-124 63 -196 63q-142 0 -303 -147z" />
<glyph unicode="&#xa1;" horiz-adv-x="598" d="M129 803q0 70 49.5 120t118.5 50q70 0 120 -50.5t50 -119.5q0 -73 -51 -121.5t-111 -48.5q-80 0 -128 51t-48 119zM133 -444l43 970h250l43 -970h-336z" />
<glyph unicode="&#xa2;" horiz-adv-x="747" d="M45 670q0 64 11.5 121t28 98t43 79.5t49.5 62t55.5 48t51 36t46.5 26.5v194h180v-170q85 -14 149 -43v-295q-19 16 -29 24t-36 19t-53 11q-72 0 -121 -61t-49 -152t49 -151t123 -60q25 0 50 10t35.5 17.5t30.5 23.5v-289q-71 -31 -149 -47v-172h-180v195q-84 41 -127 84 q-158 158 -158 391z" />
<glyph unicode="&#xa3;" horiz-adv-x="1087" d="M104 0q15 28 95 161.5t90 151.5q41 77 53 125t10 123h-211v211h166q-63 132 -63 223q0 64 26 125.5t77.5 116t142 88t206.5 33.5q114 0 254 -45q15 0 31 -8v-291q-126 90 -236 90q-79 0 -130.5 -42t-51.5 -104q0 -46 62 -186h274v-211h-244q-16 -49 -40 -93t-78 -116 l4 -4q71 39 106 39q54 0 131 -59q70 -54 109 -54q42 0 94 41v-295q-68 -43 -137 -43q-32 0 -66 14.5t-53 27.5t-55 40q-44 36 -71 51t-56 15q-27 0 -51 -12t-44 -35t-31.5 -38.5t-25.5 -39.5h-287z" />
<glyph unicode="&#xa4;" horiz-adv-x="1425" d="M186 295l131 129q-22 38 -34 62t-25.5 78t-13.5 114q0 56 13 107.5t25.5 78t34.5 64.5l-131 131l140 143l133 -133q37 22 62.5 34.5t78.5 26t111 13.5q131 0 254 -74l131 133l141 -143l-131 -131q22 -38 34 -62.5t26 -77t14 -110.5q0 -60 -15 -116t-26 -78t-33 -60 l131 -129l-141 -141l-131 129q-118 -74 -256 -74q-57 0 -111 14t-78.5 26.5t-60.5 33.5l-129 -129zM444 682q0 -122 80.5 -198t186.5 -76q112 0 190 78.5t78 189.5t-78 188.5t-190 77.5q-115 0 -191 -80.5t-76 -179.5z" />
<glyph unicode="&#xa5;" horiz-adv-x="1024" d="M25 291v217h319v133l-41 96h-278v215h186l-186 443h366l117 -443h4l115 443h372l-192 -443h192v-215h-286l-43 -96v-133h329v-217h-329v-291h-326v291h-319z" />
<glyph unicode="&#xa6;" horiz-adv-x="1204" d="M494 287h215v-731h-215v731zM494 664v731h215v-731h-215z" />
<glyph unicode="&#xa7;" horiz-adv-x="1044" d="M47 500q0 56 13 104.5t41.5 94.5t51.5 75t66 76q-35 61 -52 106.5t-17 100.5q0 145 111 241.5t265 96.5q93 0 180 -39t144 -115q33 -45 44 -85.5t15 -100.5h-237q-4 26 -9 42.5t-17.5 41t-37 37t-59.5 12.5q-49 0 -80 -25t-31 -65q0 -48 48.5 -85.5t175.5 -99.5 q37 -19 50.5 -25.5t50 -26t52.5 -31t46.5 -33.5t45.5 -39.5t36 -44t31 -52t17.5 -57.5t7.5 -67q0 -55 -15.5 -104.5t-45.5 -91.5t-54 -68t-61 -60q64 -125 64 -215q0 -143 -112 -241.5t-277 -98.5q-43 0 -87.5 7t-108.5 39.5t-105 86.5q-34 43 -46.5 88.5t-19.5 120.5h248 q1 -20 2 -30.5t7.5 -33t17.5 -35t33.5 -23.5t54.5 -11q51 0 82.5 26.5t31.5 65.5q0 49 -47.5 86.5t-165.5 93.5q-61 28 -96 46t-89.5 54t-85 69.5t-54 84t-23.5 107.5zM283 610q0 -46 27 -75.5t75 -57.5q69 -39 217 -106q21 -9 53.5 -24t46.5 -21q72 70 72 129q0 60 -82 117 t-293 143l-55 22q-61 -66 -61 -127z" />
<glyph unicode="&#xa8;" horiz-adv-x="681" d="M4 1233q0 61 43 104t105 43q60 0 102.5 -43t42.5 -104q0 -60 -42.5 -103t-102.5 -43q-61 0 -104.5 43t-43.5 103zM385 1233q0 61 42.5 104t104.5 43q60 0 103 -43t43 -104q0 -60 -43 -103t-103 -43q-61 0 -104 43t-43 103z" />
<glyph unicode="&#xa9;" horiz-adv-x="1511" d="M-10 651q0 135 43.5 257t117 213t169 159t202.5 102.5t213 34.5q144 0 271 -43t220 -117t160.5 -171.5t101.5 -208.5t34 -226q0 -155 -61 -297t-163.5 -244.5t-244.5 -163.5t-297 -61q-208 0 -384.5 103t-279 279t-102.5 384zM141 651q0 -125 48.5 -239t131 -196 t196.5 -130.5t239 -48.5q166 0 307.5 82t224 223.5t82.5 308.5q0 134 -53.5 251.5t-139.5 195.5t-192 123t-213 45q-144 0 -266 -53.5t-200 -141t-121.5 -196.5t-43.5 -224zM379 647q0 194 104 311t281 117q69 0 125 -18t88.5 -40.5t60.5 -61t38.5 -61t25.5 -60.5l-162 -39 q-12 28 -20.5 43.5t-29.5 42t-53.5 40t-74.5 13.5q-45 0 -80.5 -15t-57 -41t-36.5 -55t-21.5 -62.5t-9 -57.5t-2.5 -46q0 -24 2 -47.5t8 -60t20 -66t34 -57t54.5 -43.5t78.5 -16q47 0 83 17.5t56.5 48.5t30.5 53.5t18 52.5l162 -56q-7 -22 -13 -37t-20.5 -44.5t-30.5 -51 t-43 -47t-58.5 -42t-76.5 -27.5t-96 -11q-170 0 -277.5 113t-107.5 311z" />
<glyph unicode="&#xaa;" horiz-adv-x="618" d="M39 961q0 37 12 68t30 52.5t47 39t55 28t63 19.5t61.5 13t59.5 9q-33 74 -115 74q-65 0 -150 -60v164q110 49 203 49q120 0 186 -66.5t66 -181.5v-200q0 -105 39 -193h-209l-20 60q-32 -37 -61 -55.5t-70 -18.5q-79 0 -138 57t-59 142zM231 989q0 -31 20.5 -54.5 t49.5 -23.5q22 0 36.5 12.5t20.5 32t7.5 32t1.5 24.5v78q-89 -13 -119 -50q-17 -21 -17 -51z" />
<glyph unicode="&#xab;" horiz-adv-x="811" d="M76 475l104 318h213l-106 -318l106 -317h-213zM436 475l105 318h213l-107 -318l107 -317h-213z" />
<glyph unicode="&#xac;" horiz-adv-x="1366" d="M125 819v205h1118v-692h-205v487h-913z" />
<glyph unicode="&#xad;" horiz-adv-x="768" d="M121 319v316h526v-316h-526z" />
<glyph unicode="&#xae;" horiz-adv-x="1511" d="M-10 651q0 167 66.5 313.5t173 243.5t239 153t266.5 56q144 0 271 -43t220 -117t160.5 -171.5t101.5 -208.5t34 -226q0 -208 -103 -384.5t-279 -279t-384 -102.5t-384.5 103t-279 279t-102.5 384zM141 651q0 -125 49 -239t131.5 -196t196 -130.5t238.5 -48.5 q167 0 308.5 82t223.5 223.5t82 308.5q0 134 -53.5 251.5t-139 195.5t-192 123t-213.5 45q-116 0 -218 -34.5t-176.5 -94t-128.5 -138t-81 -167.5t-27 -181zM410 242v813h385q33 0 64.5 -4.5t70.5 -19t68 -38.5t49 -67.5t20 -100.5q0 -96 -58.5 -152.5t-160.5 -72.5v-4 q55 -21 86 -56.5t88 -133.5l94 -164h-203l-67 131q-61 120 -110 161t-120 41h-43v-333h-163zM573 705h134q26 0 39.5 0.5t40 3.5t41.5 10t32 18.5t25 32t8 47.5t-12 48t-29.5 32t-42 18t-44 9t-40.5 2h-152v-221z" />
<glyph unicode="&#xaf;" horiz-adv-x="681" d="M45 1155v170h592v-170h-592z" />
<glyph unicode="&#xb0;" horiz-adv-x="819" d="M90 1090q0 147 96.5 237t223.5 90q132 0 225.5 -93t93.5 -226q0 -132 -93.5 -225t-225.5 -93q-138 0 -229 96.5t-91 213.5zM256 1102q0 -69 46 -112.5t108 -43.5t107.5 44t45.5 108t-45 108.5t-108 44.5q-67 0 -110.5 -46.5t-43.5 -102.5z" />
<glyph unicode="&#xb1;" horiz-adv-x="1368" d="M125 0v205h1116v-205h-1116zM125 754v204h455v455h204v-455h457v-204h-457v-455h-204v455h-455z" />
<glyph unicode="&#xb2;" horiz-adv-x="747" d="M115 602v137q0 88 47.5 158t161.5 168q45 37 62 58.5t17 45.5q0 31 -23 50.5t-56 19.5q-75 0 -172 -76v199q133 49 223 49q112 0 187 -61t75 -156q0 -37 -13.5 -73t-28 -60t-51 -60.5t-53 -51t-63.5 -54.5q-50 -41 -67 -67t-19 -52h307v-174h-534z" />
<glyph unicode="&#xb3;" horiz-adv-x="747" d="M147 627v198q2 -2 4 -3t5.5 -3t7.5 -4q53 -33 81.5 -45t63.5 -12q50 0 79.5 26t29.5 64q0 42 -41 64t-101 22h-53v162q43 2 64.5 4t47.5 8.5t37 20t11 34.5q0 31 -23 51.5t-53 20.5q-69 0 -160 -76v205q142 49 222 49q52 0 107 -22.5t96.5 -72t41.5 -112.5 q0 -108 -112 -182q28 -10 47.5 -20t45.5 -31t40 -55.5t14 -79.5q0 -108 -83 -180t-214 -72q-98 0 -205 41z" />
<glyph unicode="&#xb4;" horiz-adv-x="681" d="M188 1087l146 295h254l-211 -295h-189z" />
<glyph unicode="&#xb5;" horiz-adv-x="1251" d="M236 -444v1396h317v-551q0 -9 -1 -29t-1 -33t1 -31.5t5 -31t10.5 -24t18.5 -17.5t28 -6t28.5 5.5t21 16.5t15 22.5t10 30t6 32.5t3 35t1 33t0 31.5t-0.5 25.5v491h318v-952h-301v123h-4q-2 -5 -8.5 -23.5t-10.5 -27t-12.5 -25t-19 -25.5t-25.5 -19.5t-36 -16t-46 -6.5 v-424h-317z" />
<glyph unicode="&#xb6;" horiz-adv-x="1138" d="M4 977q0 52 10.5 102t33 101t65.5 95t102 73q66 32 127 39.5t197 7.5h596v-260h-113v-1579h-238v1579h-143v-1579h-244v1017q-26 3 -48 6t-65 14.5t-77 28t-73.5 48t-66.5 71.5t-45 101t-18 135z" />
<glyph unicode="&#xb7;" horiz-adv-x="768" d="M225 698q0 66 48.5 113t105.5 47q73 0 119.5 -48.5t46.5 -111.5q0 -66 -47.5 -112.5t-112.5 -46.5q-64 0 -112 47t-48 112z" />
<glyph unicode="&#xb8;" horiz-adv-x="681" d="M227 -305q47 -25 76 -35t64 -10q45 0 68.5 20t23.5 49q0 25 -25.5 40.5t-64.5 15.5h-78v245h127v-141q95 0 153 -37.5t58 -117.5q0 -76 -67.5 -132.5t-172.5 -56.5q-70 0 -162 33v127z" />
<glyph unicode="&#xb9;" horiz-adv-x="747" d="M147 1096v161q41 0 64.5 4t45.5 17.5t32 41.5t12 75h197v-793h-226v494h-125z" />
<glyph unicode="&#xba;" horiz-adv-x="661" d="M37 1085q0 80 24 144.5t64 104.5t88.5 61.5t99.5 21.5q74 0 132 -22t91.5 -56t54.5 -79t28.5 -85.5t7.5 -82.5q0 -150 -82.5 -241t-216.5 -91q-138 0 -214.5 92t-76.5 233zM252 1087q0 -165 78 -165q27 0 45 20.5t24.5 54.5t8.5 55.5t2 43.5q0 77 -20 119t-58 42 q-80 0 -80 -170z" />
<glyph unicode="&#xbb;" horiz-adv-x="811" d="M57 158l107 317l-107 318h213l105 -318l-105 -317h-213zM418 158l106 317l-106 318h213l104 -318l-104 -317h-213z" />
<glyph unicode="&#xbc;" horiz-adv-x="1705" d="M156 1096v161q40 0 63 4t44.5 17.5t31.5 41.5t12 75h197v-793h-225v494h-123zM403 -88l727 1483h211l-731 -1483h-207zM1034 119v192l262 394h242v-433h96v-153h-96v-207h-215v207h-289zM1182 272h141v215h-4z" />
<glyph unicode="&#xbd;" horiz-adv-x="1705" d="M156 1096v161q40 0 63 4t44.5 17.5t31.5 41.5t12 75h197v-793h-225v494h-123zM403 -88l727 1483h211l-731 -1483h-207zM1073 49q0 88 47.5 158t161.5 168q45 38 62.5 59t17.5 45q0 31 -23.5 50.5t-56.5 19.5q-75 0 -172 -76v199q133 49 223 49q112 0 187 -61t75 -156 q0 -43 -15.5 -83t-46 -76.5t-55.5 -60t-63 -55.5l-29 -24q-50 -41 -67 -67t-19 -52h308v-174h-535v137z" />
<glyph unicode="&#xbe;" horiz-adv-x="1705" d="M154 627v198q2 -1 6.5 -4t9.5 -6q52 -32 81.5 -44.5t63.5 -12.5q51 0 80 26t29 64q0 42 -39.5 64t-99.5 22h-56v162q43 2 64.5 4t47.5 8.5t37 20t11 34.5q0 31 -23 51.5t-53 20.5q-29 0 -62 -14t-51 -27t-46 -35v205q8 0 24 8q122 39 187 39q103 0 179.5 -58t76.5 -147 q0 -105 -111 -182q28 -10 47.5 -20t45.5 -31t40 -55.5t14 -79.5q0 -108 -83 -180t-216 -72q-92 0 -204 41zM403 -88l727 1483h211l-731 -1483h-207zM1034 119v192l262 394h242v-433h96v-153h-96v-207h-215v207h-289zM1182 272h141v215h-4z" />
<glyph unicode="&#xbf;" horiz-adv-x="917" d="M70 -100q0 43 10 80t23.5 64.5t47.5 65.5t61 64t85 78q46 42 74 79.5t39 74t13.5 58.5t2.5 60h272v-57q0 -119 -34.5 -193t-108.5 -147q-10 -8 -72 -70q-48 -48 -69 -81t-21 -66q0 -53 49 -88t117 -35q59 0 121.5 19.5t96.5 37.5t78 45q7 5 11 7v-283q-212 -80 -352 -80 q-189 0 -316.5 103.5t-127.5 263.5zM393 801q0 72 49.5 122t118.5 50q70 0 120 -50.5t50 -119.5q0 -72 -51 -122t-111 -50q-80 0 -128 51t-48 119z" />
<glyph unicode="&#xc0;" horiz-adv-x="1067" d="M6 0l365 1395h323l367 -1395h-354l-50 276h-266l-51 -276h-334zM289 1790h254l145 -295h-188zM436 526h176l-86 488h-4z" />
<glyph unicode="&#xc1;" horiz-adv-x="1067" d="M6 0l365 1395h323l367 -1395h-354l-50 276h-266l-51 -276h-334zM381 1495l145 295h254l-211 -295h-188zM436 526h176l-86 488h-4z" />
<glyph unicode="&#xc2;" horiz-adv-x="1067" d="M6 0l365 1395h323l367 -1395h-354l-50 276h-266l-51 -276h-334zM240 1493l147 295h293l147 -295h-188l-107 154l-104 -154h-188zM436 526h176l-86 488h-4z" />
<glyph unicode="&#xc3;" horiz-adv-x="1067" d="M6 0l365 1395h323l367 -1395h-354l-50 276h-266l-51 -276h-334zM209 1522v30q0 112 54.5 173t135.5 61q78 0 172 -70q30 -24 42 -30.5t28 -6.5q23 0 36.5 24t10.5 69h170v-33q0 -92 -50 -161t-144 -69q-72 0 -152 58l-43 30q-19 17 -43 17q-4 0 -8.5 -1t-13 -6 t-14.5 -13.5t-11 -27.5t-4 -44h-166zM436 526h176l-86 488h-4z" />
<glyph unicode="&#xc4;" horiz-adv-x="1067" d="M6 0l365 1395h323l367 -1395h-354l-50 276h-266l-51 -276h-334zM197 1640q0 62 43 105t104 43q60 0 102.5 -43.5t42.5 -104.5q0 -60 -42.5 -102.5t-102.5 -42.5q-61 0 -104 42.5t-43 102.5zM436 526h176l-86 488h-4zM578 1640q0 62 43 105t104 43q60 0 102.5 -43.5 t42.5 -104.5q0 -60 -42.5 -102.5t-102.5 -42.5q-61 0 -104 42.5t-43 102.5z" />
<glyph unicode="&#xc5;" horiz-adv-x="1067" d="M6 0l365 1395h323l367 -1395h-354l-50 276h-266l-51 -276h-334zM365 1642q0 70 49.5 119t120.5 49q70 0 118.5 -49.5t48.5 -118.5q0 -70 -49 -118.5t-118 -48.5q-71 0 -120.5 48.5t-49.5 118.5zM436 526h176l-86 488h-4zM471 1645q0 -26 19 -45t45 -19t44.5 19t18.5 45 t-18.5 44.5t-44.5 18.5q-27 0 -45.5 -18t-18.5 -45z" />
<glyph unicode="&#xc6;" horiz-adv-x="1536" d="M-51 0l424 1395h1085v-283h-467v-256h436v-272h-436v-301h467v-283h-792v381h-269l-98 -381h-350zM461 633h205v510h-78z" />
<glyph unicode="&#xc7;" horiz-adv-x="874" d="M33 692q0 151 36.5 283t103.5 230.5t167.5 155t222.5 56.5q97 0 213 -51v-317q-82 75 -170 75q-50 0 -90 -22.5t-65 -55.5t-43.5 -81.5t-26.5 -87.5t-13 -87t-5.5 -67.5t-0.5 -40.5q0 -182 64.5 -292.5t175.5 -110.5q84 0 174 71v-315q-110 -48 -203 -55v-101 q96 0 154.5 -37.5t58.5 -117.5q0 -76 -68 -132.5t-173 -56.5q-73 0 -160 33v127q82 -45 137 -45q45 0 68.5 20t23.5 49q0 25 -25 40.5t-63 15.5h-80v215q-108 26 -190.5 98t-129.5 171.5t-70 208.5t-23 224z" />
<glyph unicode="&#xc8;" horiz-adv-x="960" d="M90 0v1395h795v-283h-469v-254h438v-272h-438v-303h469v-283h-795zM236 1790h253l146 -295h-189z" />
<glyph unicode="&#xc9;" horiz-adv-x="960" d="M90 0v1395h795v-283h-469v-254h438v-272h-438v-303h469v-283h-795zM328 1495l145 295h254l-211 -295h-188z" />
<glyph unicode="&#xca;" horiz-adv-x="960" d="M90 0v1395h795v-283h-469v-254h438v-272h-438v-303h469v-283h-795zM186 1493l148 295h293l147 -295h-188l-107 154l-104 -154h-189z" />
<glyph unicode="&#xcb;" horiz-adv-x="960" d="M90 0v1395h795v-283h-469v-254h438v-272h-438v-303h469v-283h-795zM143 1640q0 62 43.5 105t104.5 43q60 0 102.5 -43.5t42.5 -104.5q0 -60 -42.5 -102.5t-102.5 -42.5q-61 0 -104.5 42.5t-43.5 102.5zM524 1640q0 62 43 105t105 43q60 0 102.5 -43.5t42.5 -104.5 q0 -60 -42.5 -102.5t-102.5 -42.5q-61 0 -104.5 42.5t-43.5 102.5z" />
<glyph unicode="&#xcc;" horiz-adv-x="532" d="M23 1790h253l146 -295h-189zM102 0v1395h328v-1395h-328z" />
<glyph unicode="&#xcd;" horiz-adv-x="532" d="M102 0v1395h328v-1395h-328zM115 1495l145 295h254l-211 -295h-188z" />
<glyph unicode="&#xce;" horiz-adv-x="532" d="M-27 1493l148 295h293l147 -295h-188l-107 154l-104 -154h-189zM102 0v1395h328v-1395h-328z" />
<glyph unicode="&#xcf;" horiz-adv-x="532" d="M-70 1640q0 62 43 105t105 43q60 0 102.5 -43.5t42.5 -104.5q0 -60 -42.5 -102.5t-102.5 -42.5q-61 0 -104.5 42.5t-43.5 102.5zM102 0v1395h328v-1395h-328zM311 1640q0 62 43.5 105t104.5 43q60 0 102.5 -43.5t42.5 -104.5q0 -60 -42.5 -102.5t-102.5 -42.5 q-61 0 -104.5 42.5t-43.5 102.5z" />
<glyph unicode="&#xd0;" horiz-adv-x="1087" d="M8 578v239h80v578h408q118 0 210 -36t151 -98t96.5 -150.5t53 -186t15.5 -213.5q0 -115 -19 -217t-62 -194t-108 -157.5t-162.5 -104t-219.5 -38.5h-363v578h-80zM414 272q30 0 53 2.5t53 13t52 29t45 52.5t37.5 81t24 118.5t9.5 160.5q0 41 -3 78.5t-10.5 85.5 t-24.5 86.5t-41 72.5t-63 53t-89 19h-43v-307h137v-239h-137v-306z" />
<glyph unicode="&#xd1;" horiz-adv-x="1110" d="M96 0v1395h330l158 -443q74 -209 108 -340h19q0 8 -1.5 35t-2.5 68q0 15 -2.5 65.5t-2.5 67.5v547h312v-1395h-330l-160 442q-72 203 -108 342h-17q0 -72 7 -153q0 -25 1 -50t1 -34v-547h-312zM231 1522v30q0 112 55 173t136 61q78 0 172 -70q30 -24 42 -30.5t28 -6.5 q23 0 36.5 24t10.5 69h170v-33q0 -91 -50.5 -160.5t-144.5 -69.5q-71 0 -151 58l-43 30q-19 17 -43 17q-4 0 -8.5 -1t-13.5 -6t-15 -13.5t-11 -27.5t-4 -44h-166z" />
<glyph unicode="&#xd2;" horiz-adv-x="1130" d="M47 694q0 164 39 301.5t106.5 229t157.5 142t191 50.5q94 0 172.5 -26t133.5 -68.5t97.5 -102.5t68 -123t42 -135t22.5 -133.5t6 -123.5q0 -209 -61.5 -373t-182 -259.5t-282.5 -95.5q-124 0 -223 58.5t-160.5 159t-94 228t-32.5 271.5zM322 1790h253l146 -295h-189z M373 702q0 -197 50.5 -311.5t139.5 -114.5q91 0 143 120t52 309q0 200 -53.5 309.5t-129.5 109.5q-59 0 -101 -40t-62.5 -106.5t-29.5 -134t-9 -141.5z" />
<glyph unicode="&#xd3;" horiz-adv-x="1130" d="M47 694q0 164 39 301.5t106.5 229t157.5 142t191 50.5q94 0 172.5 -26t133.5 -68.5t97.5 -102.5t68 -123t42 -135t22.5 -133.5t6 -123.5q0 -209 -61.5 -373t-182 -259.5t-282.5 -95.5q-124 0 -223 58.5t-160.5 159t-94 228t-32.5 271.5zM373 702q0 -197 50.5 -311.5 t139.5 -114.5q91 0 143 120t52 309q0 200 -53.5 309.5t-129.5 109.5q-59 0 -101 -40t-62.5 -106.5t-29.5 -134t-9 -141.5zM414 1495l145 295h254l-211 -295h-188z" />
<glyph unicode="&#xd4;" horiz-adv-x="1130" d="M47 694q0 164 39 301.5t106.5 229t157.5 142t191 50.5q94 0 172.5 -26t133.5 -68.5t97.5 -102.5t68 -123t42 -135t22.5 -133.5t6 -123.5q0 -209 -61.5 -373t-182 -259.5t-282.5 -95.5q-124 0 -223 58.5t-160.5 159t-94 228t-32.5 271.5zM272 1493l148 295h293l147 -295 h-188l-107 154l-104 -154h-189zM373 702q0 -197 50.5 -311.5t139.5 -114.5q91 0 143 120t52 309q0 200 -53.5 309.5t-129.5 109.5q-59 0 -101 -40t-62.5 -106.5t-29.5 -134t-9 -141.5z" />
<glyph unicode="&#xd5;" horiz-adv-x="1130" d="M47 694q0 164 39 301.5t106.5 229t157.5 142t191 50.5q94 0 172.5 -26t133.5 -68.5t97.5 -102.5t68 -123t42 -135t22.5 -133.5t6 -123.5q0 -209 -61.5 -373t-182 -259.5t-282.5 -95.5q-124 0 -223 58.5t-160.5 159t-94 228t-32.5 271.5zM242 1522v30q0 112 54.5 173 t135.5 61q78 0 172 -70q30 -24 42 -30.5t28 -6.5q23 0 36.5 24t10.5 69h170v-33q0 -91 -50.5 -160.5t-144.5 -69.5q-71 0 -151 58l-43 30q-19 17 -43 17q-4 0 -8.5 -1t-13 -6t-14.5 -13.5t-11 -27.5t-4 -44h-166zM373 702q0 -197 50.5 -311.5t139.5 -114.5q91 0 143 120 t52 309q0 200 -53.5 309.5t-129.5 109.5q-59 0 -101 -40t-62.5 -106.5t-29.5 -134t-9 -141.5z" />
<glyph unicode="&#xd6;" horiz-adv-x="1130" d="M47 694q0 164 39 301.5t106.5 229t157.5 142t191 50.5q94 0 172.5 -26t133.5 -68.5t97.5 -102.5t68 -123t42 -135t22.5 -133.5t6 -123.5q0 -209 -61.5 -373t-182 -259.5t-282.5 -95.5q-124 0 -223 58.5t-160.5 159t-94 228t-32.5 271.5zM229 1640q0 62 43.5 105t104.5 43 q60 0 102.5 -43.5t42.5 -104.5q0 -60 -42.5 -102.5t-102.5 -42.5q-61 0 -104.5 42.5t-43.5 102.5zM373 702q0 -197 50.5 -311.5t139.5 -114.5q91 0 143 120t52 309q0 200 -53.5 309.5t-129.5 109.5q-59 0 -101 -40t-62.5 -106.5t-29.5 -134t-9 -141.5zM610 1640q0 62 43 105 t105 43q60 0 102.5 -43.5t42.5 -104.5q0 -60 -42.5 -102.5t-102.5 -42.5q-61 0 -104.5 42.5t-43.5 102.5z" />
<glyph unicode="&#xd7;" horiz-adv-x="1366" d="M158 1049l151 151l375 -375l375 375l151 -151l-372 -375l370 -371l-151 -151l-371 370l-373 -370l-151 151l370 371z" />
<glyph unicode="&#xd8;" horiz-adv-x="1130" d="M47 694q0 204 60 367t175.5 259.5t268.5 96.5q103 0 207 -41l49 119h194l-96 -227q178 -204 178 -563q0 -208 -61 -371.5t-181.5 -260t-283.5 -96.5q-90 0 -184 39l-49 -112h-191l94 221q-180 208 -180 569zM373 696q0 -80 14 -188h4l250 592q-39 24 -70 24 q-91 0 -144.5 -109t-53.5 -319zM492 299q33 -23 73 -23q60 0 104.5 57t66.5 152.5t22 216.5q0 42 -2.5 80t-6.5 68.5t-4 36.5h-4z" />
<glyph unicode="&#xd9;" horiz-adv-x="1067" d="M84 434v961h326v-924q0 -106 26.5 -163.5t93.5 -57.5q38 0 64.5 19.5t39 52.5t18 65t5.5 66v942h326v-961q0 -224 -124 -340.5t-331 -116.5q-216 0 -330 119t-114 338zM289 1790h254l145 -295h-188z" />
<glyph unicode="&#xda;" horiz-adv-x="1067" d="M84 434v961h326v-924q0 -106 26.5 -163.5t93.5 -57.5q38 0 64.5 19.5t39 52.5t18 65t5.5 66v942h326v-961q0 -224 -124 -340.5t-331 -116.5q-216 0 -330 119t-114 338zM381 1495l145 295h254l-211 -295h-188z" />
<glyph unicode="&#xdb;" horiz-adv-x="1067" d="M84 434v961h326v-924q0 -106 26.5 -163.5t93.5 -57.5q38 0 64.5 19.5t39 52.5t18 65t5.5 66v942h326v-961q0 -224 -124 -340.5t-331 -116.5q-216 0 -330 119t-114 338zM240 1493l147 295h293l147 -295h-188l-107 154l-104 -154h-188z" />
<glyph unicode="&#xdc;" horiz-adv-x="1067" d="M84 434v961h326v-924q0 -106 26.5 -163.5t93.5 -57.5q38 0 64.5 19.5t39 52.5t18 65t5.5 66v942h326v-961q0 -224 -124 -340.5t-331 -116.5q-216 0 -330 119t-114 338zM197 1640q0 62 43 105t104 43q60 0 102.5 -43.5t42.5 -104.5q0 -60 -42.5 -102.5t-102.5 -42.5 q-61 0 -104 42.5t-43 102.5zM578 1640q0 62 43 105t104 43q60 0 102.5 -43.5t42.5 -104.5q0 -60 -42.5 -102.5t-102.5 -42.5q-61 0 -104 42.5t-43 102.5z" />
<glyph unicode="&#xdd;" horiz-adv-x="1024" d="M25 1395h366l117 -443h4l115 443h372l-329 -756v-639h-326v639zM360 1495l146 295h254l-211 -295h-189z" />
<glyph unicode="&#xde;" horiz-adv-x="1024" d="M90 0v1395h324v-277h98q58 0 90 -1t90 -9t92.5 -23.5t78.5 -47t68.5 -76.5t42 -115t17.5 -160q0 -116 -26.5 -196t-79.5 -126.5t-125 -67t-172 -20.5h-174v-276h-324zM414 549h98q72 0 108.5 41t36.5 112q0 72 -38.5 108t-106.5 36h-98v-297z" />
<glyph unicode="&#xdf;" horiz-adv-x="1024" d="M121 0v1010q0 105 30 184.5t85 127.5t127 71.5t161 23.5q176 0 281.5 -90t105.5 -244q0 -51 -14 -96.5t-31.5 -74.5t-46.5 -58t-45.5 -41t-42.5 -29q41 -17 65.5 -29t65.5 -42.5t64.5 -65.5t42 -93.5t18.5 -131.5q0 -190 -102 -311t-246 -121q-57 0 -109 18v256 q32 -8 37 -8q49 0 73 55.5t24 137.5q0 62 -12.5 103t-36 58.5t-41 23t-44.5 7.5v233q15 2 26 7t26 18.5t23.5 46t8.5 80.5q0 77 -26 120.5t-66 43.5t-62 -35.5t-22 -91.5v-1063h-317z" />
<glyph unicode="&#xe0;" horiz-adv-x="917" d="M23 283q0 57 20 104.5t49 80t77 60t86.5 43t95.5 29.5t87.5 19t77.5 12q-7 33 -28.5 55.5t-50.5 32t-50.5 13t-42.5 3.5q-49 0 -95 -15.5t-71.5 -31.5t-60.5 -43v252q159 78 309 78q177 0 278 -100t101 -277v-322q0 -139 57 -276h-317q-21 52 -29 90q-25 -27 -38 -40 t-40.5 -33.5t-59 -30t-69.5 -9.5q-113 0 -199.5 89.5t-86.5 216.5zM215 1382h254l145 -295h-188zM315 324q0 -49 30.5 -83t72.5 -34q47 0 72.5 41t25.5 102v123q-26 -3 -43 -5.5t-50 -13t-54 -25t-37.5 -42t-16.5 -63.5z" />
<glyph unicode="&#xe1;" horiz-adv-x="917" d="M23 283q0 57 20 104.5t49 80t77 60t86.5 43t95.5 29.5t87.5 19t77.5 12q-7 33 -28.5 55.5t-50.5 32t-50.5 13t-42.5 3.5q-49 0 -95 -15.5t-71.5 -31.5t-60.5 -43v252q159 78 309 78q177 0 278 -100t101 -277v-322q0 -139 57 -276h-317q-21 52 -29 90q-25 -27 -38 -40 t-40.5 -33.5t-59 -30t-69.5 -9.5q-113 0 -199.5 89.5t-86.5 216.5zM307 1087l146 295h254l-211 -295h-189zM315 324q0 -49 30.5 -83t72.5 -34q47 0 72.5 41t25.5 102v123q-26 -3 -43 -5.5t-50 -13t-54 -25t-37.5 -42t-16.5 -63.5z" />
<glyph unicode="&#xe2;" horiz-adv-x="917" d="M23 283q0 57 20 104.5t49 80t77 60t86.5 43t95.5 29.5t87.5 19t77.5 12q-7 33 -28.5 55.5t-50.5 32t-50.5 13t-42.5 3.5q-49 0 -95 -15.5t-71.5 -31.5t-60.5 -43v252q159 78 309 78q177 0 278 -100t101 -277v-322q0 -139 57 -276h-317q-21 52 -29 90q-25 -27 -38 -40 t-40.5 -33.5t-59 -30t-69.5 -9.5q-113 0 -199.5 89.5t-86.5 216.5zM145 1085l148 295h293l147 -295h-188l-107 154l-104 -154h-189zM315 324q0 -49 30.5 -83t72.5 -34q47 0 72.5 41t25.5 102v123q-26 -3 -43 -5.5t-50 -13t-54 -25t-37.5 -42t-16.5 -63.5z" />
<glyph unicode="&#xe3;" horiz-adv-x="917" d="M23 283q0 57 20 104.5t49 80t77 60t86.5 43t95.5 29.5t87.5 19t77.5 12q-7 33 -28.5 55.5t-50.5 32t-50.5 13t-42.5 3.5q-49 0 -95 -15.5t-71.5 -31.5t-60.5 -43v252q159 78 309 78q177 0 278 -100t101 -277v-322q0 -139 57 -276h-317q-21 52 -29 90q-25 -27 -38 -40 t-40.5 -33.5t-59 -30t-69.5 -9.5q-113 0 -199.5 89.5t-86.5 216.5zM135 1114v31q0 112 55 172.5t136 60.5q79 0 172 -69q23 -18 30.5 -23.5t17.5 -9.5t21 -4q23 0 36.5 23.5t10.5 68.5h170v-33q0 -91 -50 -160t-144 -69q-74 0 -152 57l-43 31q-18 16 -43 16q-4 0 -8.5 -1 t-13 -6t-14.5 -13.5t-11 -27.5t-4 -44h-166zM315 324q0 -49 30.5 -83t72.5 -34q47 0 72.5 41t25.5 102v123q-26 -3 -43 -5.5t-50 -13t-54 -25t-37.5 -42t-16.5 -63.5z" />
<glyph unicode="&#xe4;" horiz-adv-x="917" d="M23 283q0 57 20 104.5t49 80t77 60t86.5 43t95.5 29.5t87.5 19t77.5 12q-7 33 -28.5 55.5t-50.5 32t-50.5 13t-42.5 3.5q-49 0 -95 -15.5t-71.5 -31.5t-60.5 -43v252q159 78 309 78q177 0 278 -100t101 -277v-322q0 -139 57 -276h-317q-21 52 -29 90q-25 -27 -38 -40 t-40.5 -33.5t-59 -30t-69.5 -9.5q-113 0 -199.5 89.5t-86.5 216.5zM102 1233q0 61 43 104t105 43q60 0 102.5 -43t42.5 -104q0 -60 -42.5 -103t-102.5 -43q-61 0 -104.5 43t-43.5 103zM315 324q0 -49 30.5 -83t72.5 -34q47 0 72.5 41t25.5 102v123q-26 -3 -43 -5.5t-50 -13 t-54 -25t-37.5 -42t-16.5 -63.5zM483 1233q0 61 43 104t105 43q60 0 102.5 -43t42.5 -104q0 -60 -42.5 -103t-102.5 -43q-61 0 -104.5 43t-43.5 103z" />
<glyph unicode="&#xe5;" horiz-adv-x="917" d="M23 283q0 57 20 104.5t49 80t77 60t86.5 43t95.5 29.5t87.5 19t77.5 12q-7 33 -28.5 55.5t-50.5 32t-50.5 13t-42.5 3.5q-49 0 -95 -15.5t-71.5 -31.5t-60.5 -43v252q159 78 309 78q177 0 278 -100t101 -277v-322q0 -139 57 -276h-317q-21 52 -29 90q-25 -27 -38 -40 t-40.5 -33.5t-59 -30t-69.5 -9.5q-113 0 -199.5 89.5t-86.5 216.5zM291 1214q0 70 49.5 119t120.5 49q70 0 119 -49.5t49 -118.5q0 -70 -49.5 -118.5t-118.5 -48.5q-71 0 -120.5 48.5t-49.5 118.5zM315 324q0 -49 30.5 -83t72.5 -34q47 0 72.5 41t25.5 102v123 q-26 -3 -43 -5.5t-50 -13t-54 -25t-37.5 -42t-16.5 -63.5zM397 1217q0 -26 19 -45t45 -19t44.5 19t18.5 45t-18.5 44.5t-44.5 18.5q-27 0 -45.5 -18t-18.5 -45z" />
<glyph unicode="&#xe6;" horiz-adv-x="1386" d="M35 276q0 76 33.5 136t76 94t120.5 62.5t126 39.5t133 27q-39 102 -159 102q-123 0 -236 -90v256q80 36 144.5 54t148.5 18q82 0 137.5 -18t120.5 -54q112 72 235 72q99 0 177.5 -36.5t127 -101t74 -150t25.5 -185.5v-68h-508q8 -51 29 -88.5t43.5 -56t52.5 -29 t47.5 -12.5t36.5 -2q63 0 113.5 27t146.5 102v-295q-54 -28 -88 -44.5t-110 -37.5t-146 -21q-54 0 -104 11.5t-83 26t-68.5 40t-51.5 40.5t-41 40q-27 -36 -47 -58t-51.5 -48t-70.5 -39t-85 -13q-131 0 -215 89.5t-84 209.5zM326 326q0 -50 30.5 -83.5t71.5 -33.5 q96 0 96 170v96q-33 -6 -54.5 -11t-51.5 -17t-48 -26.5t-31 -39t-13 -55.5zM793 608h245v27q0 65 -33 111.5t-87 46.5q-16 0 -31 -5t-37 -21.5t-37.5 -57t-19.5 -101.5z" />
<glyph unicode="&#xe7;" horiz-adv-x="747" d="M45 475q0 212 123.5 356t306.5 144q79 0 184 -41v-287q-32 25 -57 37t-57 12q-75 0 -123.5 -61t-48.5 -152q0 -92 49.5 -154.5t118.5 -62.5q59 0 118 53v-282q-89 -51 -172 -57v-101q95 0 153 -37.5t58 -117.5q0 -77 -67 -133t-174 -56q-73 0 -160 33v127q47 -25 75 -35 t62 -10q45 0 69.5 20.5t24.5 48.5q0 25 -25.5 40.5t-64.5 15.5h-78v217q-142 41 -228.5 175t-86.5 308z" />
<glyph unicode="&#xe8;" horiz-adv-x="960" d="M51 473q0 217 125 359.5t320 142.5q190 0 294.5 -128.5t104.5 -332.5v-78h-512q43 -192 211 -192q64 0 117 28t145 105v-295q-41 -22 -63.5 -33.5t-71.5 -31.5t-100.5 -30t-104.5 -10q-204 0 -334.5 138.5t-130.5 357.5zM236 1382h253l146 -295h-189zM367 606h249v31 q0 65 -32.5 111.5t-87.5 46.5q-13 0 -26 -2.5t-32 -14t-32.5 -30.5t-25 -56t-13.5 -86z" />
<glyph unicode="&#xe9;" horiz-adv-x="960" d="M51 473q0 217 125 359.5t320 142.5q190 0 294.5 -128.5t104.5 -332.5v-78h-512q43 -192 211 -192q64 0 117 28t145 105v-295q-41 -22 -63.5 -33.5t-71.5 -31.5t-100.5 -30t-104.5 -10q-204 0 -334.5 138.5t-130.5 357.5zM328 1087l145 295h254l-211 -295h-188zM367 606 h249v31q0 65 -32.5 111.5t-87.5 46.5q-13 0 -26 -2.5t-32 -14t-32.5 -30.5t-25 -56t-13.5 -86z" />
<glyph unicode="&#xea;" horiz-adv-x="960" d="M51 473q0 217 125 359.5t320 142.5q190 0 294.5 -128.5t104.5 -332.5v-78h-512q43 -192 211 -192q64 0 117 28t145 105v-295q-41 -22 -63.5 -33.5t-71.5 -31.5t-100.5 -30t-104.5 -10q-204 0 -334.5 138.5t-130.5 357.5zM186 1085l148 295h293l147 -295h-188l-107 154 l-104 -154h-189zM367 606h249v31q0 65 -32.5 111.5t-87.5 46.5q-13 0 -26 -2.5t-32 -14t-32.5 -30.5t-25 -56t-13.5 -86z" />
<glyph unicode="&#xeb;" horiz-adv-x="960" d="M51 473q0 217 125 359.5t320 142.5q190 0 294.5 -128.5t104.5 -332.5v-78h-512q43 -192 211 -192q64 0 117 28t145 105v-295q-41 -22 -63.5 -33.5t-71.5 -31.5t-100.5 -30t-104.5 -10q-204 0 -334.5 138.5t-130.5 357.5zM143 1233q0 61 43 104t105 43q60 0 102.5 -43 t42.5 -104q0 -60 -42.5 -103t-102.5 -43q-61 0 -104.5 43t-43.5 103zM367 606h249v31q0 65 -32.5 111.5t-87.5 46.5q-13 0 -26 -2.5t-32 -14t-32.5 -30.5t-25 -56t-13.5 -86zM524 1233q0 61 43 104t105 43q60 0 102.5 -43t42.5 -104q0 -60 -42.5 -103t-102.5 -43 q-61 0 -104.5 43t-43.5 103z" />
<glyph unicode="&#xec;" horiz-adv-x="532" d="M23 1382h253l146 -295h-189zM109 0v952h315v-952h-315z" />
<glyph unicode="&#xed;" horiz-adv-x="532" d="M109 0v952h315v-952h-315zM115 1087l145 295h254l-211 -295h-188z" />
<glyph unicode="&#xee;" horiz-adv-x="532" d="M-27 1085l148 295h293l147 -295h-188l-107 154l-104 -154h-189zM109 0v952h315v-952h-315z" />
<glyph unicode="&#xef;" horiz-adv-x="532" d="M-70 1233q0 61 43 104t105 43q60 0 102.5 -43t42.5 -104q0 -60 -42.5 -103t-102.5 -43q-61 0 -104.5 43t-43.5 103zM109 0v952h315v-952h-315zM311 1233q0 61 43 104t105 43q60 0 102.5 -43t42.5 -104q0 -60 -42.5 -103t-102.5 -43q-61 0 -104.5 43t-43.5 103z" />
<glyph unicode="&#xf0;" horiz-adv-x="1067" d="M92 471q0 135 51 251t138.5 184.5t189.5 68.5q69 0 104 -33l5 4q-25 101 -88 201l-218 -68l-36 127l186 56q-50 83 -94 133h354l35 -41l160 41l39 -115l-125 -39q38 -69 61.5 -119t60 -142.5t55.5 -197.5t19 -215q0 -265 -120.5 -427.5t-336.5 -162.5q-132 0 -233 66.5 t-154 178.5t-53 249zM416 481q0 -256 116 -256q55 0 88 65.5t33 184.5q0 72 -11 129t-38 96t-67 39q-121 0 -121 -258z" />
<glyph unicode="&#xf1;" horiz-adv-x="980" d="M98 0v952h277l31 -98q16 22 29.5 37.5t40 37.5t63.5 34t82 12q81 0 143 -43.5t91.5 -108t29.5 -137.5v-686h-318v621q0 33 -14.5 57t-44.5 24q-43 0 -67.5 -46t-24.5 -121v-535h-318zM166 1114v31q0 112 54.5 172.5t135.5 60.5q79 0 172 -69q30 -24 42 -30.5t28 -6.5 q23 0 36.5 23.5t10.5 68.5h170v-33q0 -91 -50 -160t-144 -69q-74 0 -152 57l-43 31q-18 16 -43 16q-4 0 -8.5 -1t-13 -6t-14.5 -13.5t-11 -27.5t-4 -44h-166z" />
<glyph unicode="&#xf2;" d="M57 471q0 223 120.5 363.5t320.5 140.5q199 0 323.5 -132t124.5 -362q0 -229 -124 -366.5t-326 -137.5q-203 0 -321 137t-118 357zM258 1382h254l145 -295h-188zM383 475q0 -42 4.5 -79.5t16 -79.5t36.5 -67.5t62 -25.5q38 0 64 26.5t37 71t14.5 80t3.5 74.5 q0 107 -28.5 180.5t-90.5 73.5q-39 0 -65 -27.5t-36.5 -73.5t-14 -80.5t-3.5 -72.5z" />
<glyph unicode="&#xf3;" d="M57 471q0 223 120.5 363.5t320.5 140.5q199 0 323.5 -132t124.5 -362q0 -229 -124 -366.5t-326 -137.5q-203 0 -321 137t-118 357zM350 1087l146 295h254l-211 -295h-189zM383 475q0 -42 4.5 -79.5t16 -79.5t36.5 -67.5t62 -25.5q38 0 64 26.5t37 71t14.5 80t3.5 74.5 q0 107 -28.5 180.5t-90.5 73.5q-39 0 -65 -27.5t-36.5 -73.5t-14 -80.5t-3.5 -72.5z" />
<glyph unicode="&#xf4;" d="M57 471q0 223 120.5 363.5t320.5 140.5q199 0 323.5 -132t124.5 -362q0 -229 -124 -366.5t-326 -137.5q-203 0 -321 137t-118 357zM209 1085l147 295h293l148 -295h-189l-106 154l-105 -154h-188zM383 475q0 -42 4.5 -79.5t16 -79.5t36.5 -67.5t62 -25.5q38 0 64 26.5 t37 71t14.5 80t3.5 74.5q0 107 -28.5 180.5t-90.5 73.5q-39 0 -65 -27.5t-36.5 -73.5t-14 -80.5t-3.5 -72.5z" />
<glyph unicode="&#xf5;" d="M57 471q0 223 120.5 363.5t320.5 140.5q199 0 323.5 -132t124.5 -362q0 -229 -124 -366.5t-326 -137.5q-203 0 -321 137t-118 357zM178 1114v31q0 112 55 172.5t136 60.5q79 0 172 -69q23 -18 30.5 -23.5t17.5 -9.5t21 -4q23 0 36.5 23.5t10.5 68.5h170v-33 q0 -91 -50 -160t-144 -69q-74 0 -152 57l-43 31q-18 16 -43 16q-4 0 -8.5 -1t-13 -6t-14.5 -13.5t-11 -27.5t-4 -44h-166zM383 475q0 -42 4.5 -79.5t16 -79.5t36.5 -67.5t62 -25.5q38 0 64 26.5t37 71t14.5 80t3.5 74.5q0 107 -28.5 180.5t-90.5 73.5q-39 0 -65 -27.5 t-36.5 -73.5t-14 -80.5t-3.5 -72.5z" />
<glyph unicode="&#xf6;" d="M57 471q0 223 120.5 363.5t320.5 140.5q199 0 323.5 -132t124.5 -362q0 -229 -124 -366.5t-326 -137.5q-203 0 -321 137t-118 357zM166 1233q0 61 43 104t104 43q60 0 103 -43t43 -104q0 -60 -43 -103t-103 -43q-61 0 -104 43t-43 103zM383 475q0 -42 4.5 -79.5t16 -79.5 t36.5 -67.5t62 -25.5q38 0 64 26.5t37 71t14.5 80t3.5 74.5q0 107 -28.5 180.5t-90.5 73.5q-39 0 -65 -27.5t-36.5 -73.5t-14 -80.5t-3.5 -72.5zM547 1233q0 61 42.5 104t104.5 43q60 0 103 -43t43 -104q0 -60 -43 -103t-103 -43q-61 0 -104 43t-43 103z" />
<glyph unicode="&#xf7;" horiz-adv-x="1368" d="M125 573v205h1118v-205h-1118zM553 254q0 60 40 97.5t89 37.5q54 0 92.5 -38.5t38.5 -92.5t-38 -91.5t-91 -37.5q-56 0 -93.5 39t-37.5 86zM553 1087q0 60 40 98t89 38q54 0 92.5 -38.5t38.5 -92.5t-38 -91.5t-91 -37.5q-56 0 -93.5 38.5t-37.5 85.5z" />
<glyph unicode="&#xf8;" d="M57 467q0 105 25.5 191.5t68 144t98.5 97.5t116 57.5t122 17.5q74 0 154 -23l53 92h174l-84 -172q22 -20 37 -35t41 -51t42.5 -74.5t29 -100t12.5 -132.5q0 -102 -26.5 -187.5t-70.5 -142.5t-102 -96.5t-119 -57.5t-124 -18q-75 0 -144 31l-51 -104h-180l86 178 q-30 28 -49.5 50.5t-48.5 69.5t-44.5 114t-15.5 151zM356 496q0 -21 9 -140h4l188 383q-39 13 -55 13q-69 0 -107.5 -73t-38.5 -183zM446 215q23 -16 54 -16q37 0 64.5 22t42 52t22.5 72.5t10 71.5t2 60q0 49 -10 117h-4z" />
<glyph unicode="&#xf9;" horiz-adv-x="980" d="M100 301v651h318v-590q0 -108 59 -108q37 0 61.5 31t24.5 77v590h318v-952h-275l-28 94q-18 -20 -24.5 -27.5t-31 -28.5t-44 -31.5t-51.5 -20t-65 -9.5q-119 0 -190.5 94.5t-71.5 229.5zM246 1382h254l145 -295h-188z" />
<glyph unicode="&#xfa;" horiz-adv-x="980" d="M100 301v651h318v-590q0 -108 59 -108q37 0 61.5 31t24.5 77v590h318v-952h-275l-28 94q-18 -20 -24.5 -27.5t-31 -28.5t-44 -31.5t-51.5 -20t-65 -9.5q-119 0 -190.5 94.5t-71.5 229.5zM338 1087l145 295h254l-211 -295h-188z" />
<glyph unicode="&#xfb;" horiz-adv-x="980" d="M100 301v651h318v-590q0 -108 59 -108q37 0 61.5 31t24.5 77v590h318v-952h-275l-28 94q-18 -20 -24.5 -27.5t-31 -28.5t-44 -31.5t-51.5 -20t-65 -9.5q-119 0 -190.5 94.5t-71.5 229.5zM197 1085l147 295h293l147 -295h-188l-107 154l-104 -154h-188z" />
<glyph unicode="&#xfc;" horiz-adv-x="980" d="M100 301v651h318v-590q0 -108 59 -108q37 0 61.5 31t24.5 77v590h318v-952h-275l-28 94q-18 -20 -24.5 -27.5t-31 -28.5t-44 -31.5t-51.5 -20t-65 -9.5q-119 0 -190.5 94.5t-71.5 229.5zM154 1233q0 61 43 104t104 43q60 0 102.5 -43t42.5 -104q0 -60 -42.5 -103 t-102.5 -43q-61 0 -104 43t-43 103zM535 1233q0 61 42.5 104t104.5 43q60 0 102.5 -43t42.5 -104q0 -60 -42.5 -103t-102.5 -43q-61 0 -104 43t-43 103z" />
<glyph unicode="&#xfd;" horiz-adv-x="874" d="M14 952h338l92 -633h5l83 633h328l-256 -952q-12 -48 -20 -76.5t-22 -73.5t-26 -72.5t-30 -65t-36.5 -60t-44.5 -48t-54 -39.5t-64 -23t-76 -9q-23 0 -44.5 2.5t-41.5 8.5t-31.5 10t-30 11.5t-20.5 8.5v244q49 -29 89 -29q53 0 79 42t52 153zM285 1087l145 295h254 l-211 -295h-188z" />
<glyph unicode="&#xfe;" d="M94 -444v1839h316v-537q23 27 35 39t40 34.5t61 33t72 10.5q95 0 170.5 -67.5t114.5 -175.5t39 -234q0 -138 -46.5 -257.5t-129.5 -191.5t-182 -72q-53 0 -89.5 24t-84.5 79v-524h-316zM410 299q41 -53 86 -53q57 0 89.5 65.5t32.5 173.5q0 98 -28 157.5t-82 59.5 q-46 0 -72 -47t-26 -131v-225z" />
<glyph unicode="&#xff;" horiz-adv-x="874" d="M14 952h338l92 -633h5l83 633h328l-256 -952q-12 -48 -20 -76.5t-22 -73.5t-26 -72.5t-30 -65t-36.5 -60t-44.5 -48t-54 -39.5t-64 -23t-76 -9q-23 0 -44.5 2.5t-41.5 8.5t-31.5 10t-30 11.5t-20.5 8.5v244q49 -29 89 -29q53 0 79 42t52 153zM100 1233q0 61 43 104 t105 43q60 0 102.5 -43t42.5 -104q0 -60 -42.5 -103t-102.5 -43q-61 0 -104.5 43t-43.5 103zM481 1233q0 61 43 104t105 43q60 0 102.5 -43t42.5 -104q0 -60 -42.5 -103t-102.5 -43q-61 0 -104.5 43t-43.5 103z" />
<glyph unicode="&#x106;" horiz-adv-x="874" d="M33 692q0 150 36.5 282t103.5 230.5t167.5 155.5t222.5 57q97 0 213 -51v-317q-82 75 -170 75q-50 0 -90 -22.5t-65 -55.5t-43.5 -81.5t-26.5 -87.5t-13 -87t-5.5 -67.5t-0.5 -40.5q0 -182 64.5 -294t175.5 -112q80 0 174 74v-315q-39 -18 -61 -26.5t-71 -20t-97 -11.5 q-155 0 -273 96t-179.5 257.5t-61.5 361.5zM385 1495l145 295h254l-211 -295h-188z" />
<glyph unicode="&#x107;" horiz-adv-x="747" d="M45 475q0 212 123.5 356t306.5 144q79 0 184 -41v-287q-32 25 -57 37t-57 12q-75 0 -123.5 -61t-48.5 -152q0 -92 49.5 -154.5t118.5 -62.5q59 0 118 53v-282q-32 -18 -50.5 -27t-62 -21t-87.5 -12q-174 0 -294 144t-120 354zM293 1087l145 295h254l-211 -295h-188z" />
<glyph unicode="&#x10c;" horiz-adv-x="874" d="M33 692q0 150 36.5 282t103.5 230.5t167.5 155.5t222.5 57q97 0 213 -51v-317q-82 75 -170 75q-50 0 -90 -22.5t-65 -55.5t-43.5 -81.5t-26.5 -87.5t-13 -87t-5.5 -67.5t-0.5 -40.5q0 -182 64.5 -294t175.5 -112q80 0 174 74v-315q-39 -18 -61 -26.5t-71 -20t-97 -11.5 q-155 0 -273 96t-179.5 257.5t-61.5 361.5zM254 1788h188l105 -154l106 154h189l-148 -295h-293z" />
<glyph unicode="&#x10d;" horiz-adv-x="747" d="M45 475q0 212 123.5 356t306.5 144q79 0 184 -41v-287q-32 25 -57 37t-57 12q-75 0 -123.5 -61t-48.5 -152q0 -92 49.5 -154.5t118.5 -62.5q59 0 118 53v-282q-32 -18 -50.5 -27t-62 -21t-87.5 -12q-174 0 -294 144t-120 354zM152 1380h188l104 -153l107 153h188 l-147 -295h-293z" />
<glyph unicode="&#x110;" horiz-adv-x="1087" d="M8 578v239h80v578h408q118 0 210 -36t151 -98t96.5 -150.5t53 -186t15.5 -213.5q0 -115 -19 -217t-62 -194t-108 -157.5t-162.5 -104t-219.5 -38.5h-363v578h-80zM414 272q30 0 53 2.5t53 13t52 29t45 52.5t37.5 81t24 118.5t9.5 160.5q0 41 -3 78.5t-10.5 85.5 t-24.5 86.5t-41 72.5t-63 53t-89 19h-43v-307h137v-239h-137v-306z" />
<glyph unicode="&#x111;" d="M43 471q0 209 100 356.5t246 147.5q42 0 81.5 -15t57.5 -27.5t45 -35.5v180h-200v170h200v148h318v-148h113v-170h-113v-1077h-281l-28 111q-21 -29 -33.5 -44t-40.5 -40.5t-62.5 -37.5t-76.5 -12q-94 0 -170 70.5t-116 182.5t-40 241zM362 483q0 -103 32.5 -165 t82.5 -62q46 0 71 47.5t25 110.5v243q-1 1 -6 6.5t-7 8t-7.5 8t-9 8.5t-9.5 7.5t-11.5 7t-12 5.5t-13.5 4t-14 1q-56 0 -88.5 -64t-32.5 -166z" />
<glyph unicode="&#x152;" horiz-adv-x="1622" d="M45 692q0 194 55.5 357.5t166.5 265.5t257 102q58 0 107 -17.5t67.5 -32t44.5 -38.5v66h799v-283h-469v-256h438v-272h-438v-301h469v-283h-799v63q-31 -25 -52.5 -39.5t-69 -30.5t-101.5 -16q-108 0 -199 58t-150.5 156t-92.5 227.5t-33 273.5zM365 690 q0 -193 50 -306.5t140 -113.5q64 0 108.5 59.5t64.5 154.5t20 218q0 203 -52.5 311.5t-130.5 108.5q-52 0 -92 -35.5t-63 -97.5t-34 -137t-11 -162z" />
<glyph unicode="&#x153;" horiz-adv-x="1492" d="M49 471q0 144 52 257.5t152 180t232 66.5q74 0 134 -20t84.5 -38t58.5 -49q30 24 47 36t52 32t75.5 29.5t87.5 9.5q189 0 294 -129.5t105 -343.5v-66h-505q16 -102 74.5 -146t127.5 -44q67 0 126 32t140 101v-297q-51 -28 -88.5 -45.5t-112.5 -38.5t-145 -21q-47 0 -89 9 t-67.5 19t-54 29.5t-38 28t-29.5 27.5q-24 -22 -41 -34.5t-53.5 -34.5t-83 -33t-101.5 -11q-196 0 -315 136.5t-119 357.5zM373 473q0 -40 4 -76.5t15 -78.5t37 -67.5t63 -25.5q116 0 116 242q0 262 -114 262q-32 0 -56 -20t-36 -48t-19 -67t-8.5 -65.5t-1.5 -55.5zM895 608 h248q0 187 -119 187q-59 0 -90.5 -52t-38.5 -135z" />
<glyph unicode="&#x160;" horiz-adv-x="937" d="M61 72v344q32 -28 54 -45.5t65 -46t90 -43.5t95 -15q74 0 126 47.5t52 114.5q0 60 -44 102t-137 88l-32 15q-269 135 -269 373q0 174 122.5 292.5t322.5 118.5q59 0 116 -12.5t91 -26t80 -35.5v-331q-133 127 -252 127q-61 0 -105.5 -36t-44.5 -87q0 -26 11 -49 t25.5 -38.5t41 -32t43.5 -25t47 -21.5q34 -15 54.5 -25t58 -31.5t61.5 -41.5t54 -53t47.5 -67.5t30 -83t12.5 -102.5q0 -195 -139.5 -332t-340.5 -137q-157 0 -336 95zM188 1788h189l104 -154l107 154h188l-147 -295h-293z" />
<glyph unicode="&#x161;" horiz-adv-x="831" d="M61 61v289q47 -37 80 -59.5t85.5 -44t99.5 -21.5q46 0 75 23.5t29 58.5q0 32 -23 47.5t-128 59.5q-29 13 -46 21t-54 33t-59 50.5t-40.5 69t-18.5 92.5q0 133 108 214t267 81q138 0 271 -62v-284q-111 98 -213 98q-40 0 -67.5 -16.5t-27.5 -44.5t25 -43.5t76 -32.5 q34 -11 60.5 -21.5t68.5 -35.5t69.5 -53.5t48.5 -74.5t21 -100q0 -137 -109.5 -232.5t-285.5 -95.5q-66 0 -135 17t-99.5 30.5t-77.5 36.5zM123 1380h188l105 -153l106 153h189l-148 -295h-293z" />
<glyph unicode="&#x178;" horiz-adv-x="1024" d="M25 1395h366l117 -443h4l115 443h372l-329 -756v-639h-326v639zM176 1640q0 62 43 105t105 43q60 0 102.5 -43.5t42.5 -104.5q0 -60 -42.5 -102.5t-102.5 -42.5q-61 0 -104.5 42.5t-43.5 102.5zM557 1640q0 62 43.5 105t104.5 43q60 0 102.5 -43.5t42.5 -104.5 q0 -60 -42.5 -102.5t-102.5 -42.5q-61 0 -104.5 42.5t-43.5 102.5z" />
<glyph unicode="&#x17d;" d="M55 0v285l469 827h-420v283h797v-283l-471 -829h516v-283h-891zM233 1788h189l104 -154l107 154h188l-147 -295h-293z" />
<glyph unicode="&#x17e;" horiz-adv-x="854" d="M53 0v242l336 469h-305v241h696v-241l-338 -469h373v-242h-762zM133 1380h189l104 -153l106 153h189l-148 -295h-292z" />
<glyph unicode="&#x2c6;" horiz-adv-x="681" d="M47 1085l148 295h292l148 -295h-189l-106 154l-104 -154h-189z" />
<glyph unicode="&#x2da;" horiz-adv-x="681" d="M172 1235q0 70 49.5 119t120.5 49q70 0 119 -49.5t49 -118.5q0 -70 -49.5 -119t-118.5 -49q-71 0 -120.5 49t-49.5 119zM279 1237q0 -26 18.5 -44.5t44.5 -18.5t45 18.5t19 44.5t-19 44.5t-45 18.5q-27 0 -45 -18t-18 -45z" />
<glyph unicode="&#x2dc;" horiz-adv-x="681" d="M16 1114v31q0 112 55 172.5t136 60.5q79 0 172 -69q30 -24 42 -30.5t28 -6.5q23 0 36.5 23.5t10.5 68.5h170v-33q0 -91 -50.5 -160t-144.5 -69q-74 0 -152 57l-43 31q-18 16 -43 16q-4 0 -8.5 -1t-13 -6t-14.5 -13.5t-11 -27.5t-4 -44h-166z" />
<glyph unicode="&#x2000;" horiz-adv-x="905" />
<glyph unicode="&#x2001;" horiz-adv-x="1810" />
<glyph unicode="&#x2002;" horiz-adv-x="905" />
<glyph unicode="&#x2003;" horiz-adv-x="1810" />
<glyph unicode="&#x2004;" horiz-adv-x="603" />
<glyph unicode="&#x2005;" horiz-adv-x="452" />
<glyph unicode="&#x2006;" horiz-adv-x="301" />
<glyph unicode="&#x2007;" horiz-adv-x="301" />
<glyph unicode="&#x2008;" horiz-adv-x="226" />
<glyph unicode="&#x2009;" horiz-adv-x="362" />
<glyph unicode="&#x200a;" horiz-adv-x="100" />
<glyph unicode="&#x2010;" horiz-adv-x="768" d="M121 319v316h526v-316h-526z" />
<glyph unicode="&#x2011;" horiz-adv-x="768" d="M121 319v316h526v-316h-526z" />
<glyph unicode="&#x2012;" horiz-adv-x="768" d="M121 319v316h526v-316h-526z" />
<glyph unicode="&#x2013;" horiz-adv-x="1024" d="M-12 422v182h1048v-182h-1048z" />
<glyph unicode="&#x2014;" horiz-adv-x="2048" d="M-12 422v182h2072v-182h-2072z" />
<glyph unicode="&#x2018;" horiz-adv-x="598" d="M51 858q0 201 176 537h138q-87 -235 -99 -389q25 -12 36.5 -17.5t36 -23.5t37 -35t23.5 -47t11 -66q0 -87 -51 -136.5t-123 -49.5q-81 0 -133 62t-52 165z" />
<glyph unicode="&#x2019;" horiz-adv-x="598" d="M188 1231q0 87 51 136.5t123 49.5q81 0 133 -62t52 -165q0 -201 -176 -537h-138q87 235 99 389q-25 12 -36.5 17.5t-36 23.5t-37 35t-23.5 47t-11 66z" />
<glyph unicode="&#x201a;" horiz-adv-x="598" d="M137 88q0 87 51 136.5t123 49.5q81 0 133 -62t52 -165q0 -198 -177 -536h-137q87 235 99 389q-23 11 -30 14.5t-30 17t-33 25.5t-24.5 31.5t-20.5 44.5t-6 55z" />
<glyph unicode="&#x201c;" horiz-adv-x="1087" d="M145 858q0 199 177 537h137q-87 -235 -99 -389q25 -12 36.5 -17.5t36 -23.5t37 -35t23.5 -47t11 -66q0 -87 -51 -136.5t-123 -49.5q-81 0 -133 62t-52 165zM592 858q0 201 176 537h137q-86 -231 -98 -389q25 -12 36.5 -17.5t36 -23.5t36.5 -35t23 -47t11 -66 q0 -87 -51 -136.5t-123 -49.5q-81 0 -132.5 62t-51.5 165z" />
<glyph unicode="&#x201d;" horiz-adv-x="1087" d="M137 1231q0 87 51 136.5t123 49.5q81 0 133 -62t52 -165q0 -199 -177 -537h-137q87 235 99 389q-25 12 -36.5 17.5t-36 23.5t-37 35t-23.5 47t-11 66zM584 1231q0 87 51 136.5t123 49.5q81 0 132.5 -62t51.5 -165q0 -201 -176 -537h-137q86 231 98 389q-25 12 -36.5 17.5 t-36 23.5t-36.5 35t-23 47t-11 66z" />
<glyph unicode="&#x201e;" horiz-adv-x="1087" d="M137 92q0 87 51 137t123 50q81 0 133 -62.5t52 -165.5q0 -198 -177 -536h-137q87 235 99 389q-23 11 -30 14.5t-30 17t-33 25.5t-24.5 31.5t-20.5 44.5t-6 55zM584 92q0 87 51 137t123 50q81 0 132.5 -62.5t51.5 -165.5q0 -200 -176 -536h-137q86 231 98 389 q-26 12 -36.5 17.5t-35.5 23t-37 35t-23 47t-11 65.5z" />
<glyph unicode="&#x2020;" horiz-adv-x="980" d="M49 623v295h277v432h325v-432h281v-295h-281v-971h-325v971h-277z" />
<glyph unicode="&#x2021;" horiz-adv-x="980" d="M49 49v295h277v309h-277v299h277v398h325v-398h281v-299h-281v-309h281v-295h-281v-397h-325v397h-277z" />
<glyph unicode="&#x2022;" horiz-adv-x="716" d="M63 723q0 123 86.5 210t208.5 87q127 0 212 -90t85 -199q0 -136 -90 -219.5t-207 -83.5q-122 0 -208.5 87t-86.5 208z" />
<glyph unicode="&#x2026;" horiz-adv-x="2048" d="M184 137q0 66 48.5 113t105.5 47q73 0 119.5 -48.5t46.5 -111.5q0 -66 -47.5 -113t-112.5 -47q-64 0 -112 47.5t-48 112.5zM864 137q0 66 48.5 113t105.5 47q73 0 119.5 -48.5t46.5 -111.5q0 -66 -47.5 -113t-112.5 -47q-64 0 -112 47.5t-48 112.5zM1544 137 q0 66 48.5 113t105.5 47q73 0 119.5 -48.5t46.5 -111.5q0 -66 -47.5 -113t-112.5 -47q-64 0 -112 47.5t-48 112.5z" />
<glyph unicode="&#x202f;" horiz-adv-x="362" />
<glyph unicode="&#x2030;" horiz-adv-x="2433" d="M66 1047q0 157 91 263.5t236 106.5q47 0 81.5 -10.5t115.5 -48.5q113 -53 211 -53q62 0 110 14t82.5 42.5t57 58t47.5 73.5h188l-665 -1589h-197l541 1278l-4 4q-67 -43 -138 -43q-64 0 -129 43l-4 -4q10 -25 14.5 -38t8.5 -40t4 -64q0 -160 -94 -262t-232 -102 q-139 0 -232 106.5t-93 264.5zM295 1044q0 -86 26 -137t70 -51t70 53t26 140q0 88 -26 138t-66 50q-49 0 -74.5 -55t-25.5 -138zM975 348q0 166 95 268.5t218 102.5q83 0 149.5 -31.5t107 -84t62 -118.5t21.5 -139q0 -162 -92.5 -265.5t-232.5 -103.5q-144 0 -236 106 t-92 265zM1204 358q0 -86 26 -143t70 -57q43 0 71 50t28 138q0 90 -28 141.5t-66 51.5q-51 0 -76 -51.5t-25 -129.5zM1694 348q0 166 96 268.5t219 102.5q109 0 187.5 -54t114.5 -136.5t36 -182.5q0 -163 -92.5 -266t-231.5 -103q-145 0 -237 106t-92 265zM1923 358 q0 -86 26 -143t72 -57q42 0 69.5 50.5t27.5 137.5q0 91 -28 144t-67 53q-50 0 -75 -53.5t-25 -131.5z" />
<glyph unicode="&#x2039;" horiz-adv-x="448" d="M74 475l104 318h213l-106 -318l106 -317h-213z" />
<glyph unicode="&#x203a;" horiz-adv-x="448" d="M57 158l107 317l-107 318h213l105 -318l-105 -317h-213z" />
<glyph unicode="&#x2044;" horiz-adv-x="212" d="M-362 -88l727 1483h208l-731 -1483h-204z" />
<glyph unicode="&#x205f;" horiz-adv-x="452" />
<glyph unicode="&#x20ac;" horiz-adv-x="1044" d="M51 438l39 180h117q0 7 -1 22t-1 22q0 10 1 29.5t1 29.5h-156l37 180h143q48 208 176.5 332.5t325.5 124.5q109 0 223 -49v-271q-79 72 -182 72q-167 0 -225 -209h377l-39 -180h-365q-2 -23 -2 -70v-33h346l-45 -180h-274q28 -100 83.5 -157.5t139.5 -57.5 q48 0 98.5 20.5t87.5 49.5v-262q-119 -56 -239 -56q-193 0 -319 126t-171 337h-176z" />
<glyph unicode="&#x2122;" horiz-adv-x="2048" d="M123 1253v142h663v-142h-245v-678h-166v678h-252zM885 575v820h260l147 -564h4l148 564h260v-820h-158v654h-4l-174 -654h-149l-172 654h-5v-654h-157z" />
<glyph unicode="&#x25fc;" horiz-adv-x="952" d="M0 0v952h952v-952h-952z" />
</font>
</defs>
</svg>
